Поиск

(Modern Creative) [CD] Edward Perraud & Synaesthetic Trip 02 - Beyond The Predictable Touch - 2015, FLAC (tracks+.cue), lossless

(Modern Creative) [CD] Edward Perraud & Synaesthetic Trip 02 - Beyond The Predictable Touch - 2015, FLAC (tracks+.cue), lossless
Треклист:
Edward Perraud & Synaesthetic Trip 02 - Beyond The Predictable Touch Жанр: Modern Creative
Носитель: CD
Год издания: 2015
Издатель (лейбл): Quark Records
Номер по каталогу: QR201521
Аудиокодек: FLAC (*.flac)
Тип рипа: tracks+.cue
Битрейт аудио: lossless
Продолжительность: 67:02
Rip by dtromp
Наличие сканов в содержимом раздачи: да
Треклист:
01. Entrailles (4:53)
02. Te Koop Te Huur (6:55)
03. Nun Komm (6:02)
04. Mal pour un Bien (7:00)
05. Touch (7:32)
06. Lascia Fare Mi (7:46)
07. Suranné (5:57)
08. Sad Time (3:49)
09. Captain Universe (9:24)
10. Democrazy (7:44)
 
 
Лог создания рипа
Exact Audio Copy V1.1 from 23. June 2015
EAC extraction logfile from 29. August 2015, 22:46
Edward Perraud / Beyond the Predictable Touch
Used drive : ATAPI iHBS112 2 Adapter: 1 ID: 0
Read mode : Secure
Utilize accurate stream : Yes
Defeat audio cache : Yes
Make use of C2 pointers : No
Read offset correction : 6
Overread into Lead-In and Lead-Out : No
Fill up missing offset samples with silence : Yes
Delete leading and trailing silent blocks : No
Null samples used in CRC calculations : Yes
Used interface : Native Win32 interface for Win NT & 2000
Gap handling : Appended to previous track
Used output format : User Defined Encoder
Selected bitrate : 1024 kBit/s
Quality : High
Add ID3 tag : No
Command line compressor : C:\Program Files\Exact Audio Copy\Flac\flac.exe
Additional command line options : -8 -V -T "ARTIST=%artist%" -T "TITLE=%title%" -T "ALBUM=%albumtitle%" -T "DATE=%year%" -T "TRACKNUMBER=%tracknr%" -T "TOTALTRACKS=%numtracks%" -T "GENRE=%genre%" -T "ALBUMARTIST=%albumartist%" -T "ALBUM ARTIST=%albumartist%" -T "COMPOSER=%composer%" -T "PERFORMER=%albuminterpret%" -T "DISCNUMBER=%cdnumber%" -T "TOTALDISCS=%totalcds%" -T "COMMENT=EAC Secure Mode, Test & Copy, AccurateRip, FLAC -8" %source%
TOC of the extracted CD
Track | Start | Length | Start sector | End sector
---------------------------------------------------------
1 | 0:00.00 | 4:52.73 | 0 | 21972
2 | 4:52.73 | 6:55.12 | 21973 | 53109
3 | 11:48.10 | 6:01.58 | 53110 | 80242
4 | 17:49.68 | 6:59.60 | 80243 | 111727
5 | 24:49.53 | 7:32.07 | 111728 | 145634
6 | 32:21.60 | 7:45.43 | 145635 | 180552
7 | 40:07.28 | 5:57.09 | 180553 | 207336
8 | 46:04.37 | 3:48.64 | 207337 | 224500
9 | 49:53.26 | 9:24.13 | 224501 | 266813
10 | 59:17.39 | 7:44.05 | 266814 | 301618
Track 1
Filename P:\DL\Edward Perraud - Beyond the Predictable Touch (2015) [FLAC]\01 - Entrailles.wav
Pre-gap length 0:00:02.00
Peak level 98.1 %
Extraction speed 5.0 X
Track quality 100.0 %
Test CRC B73F083E
Copy CRC B73F083E
Track not present in AccurateRip database
Copy OK
Track 2
Filename P:\DL\Edward Perraud - Beyond the Predictable Touch (2015) [FLAC]\02 - Te Koop Te Huur.wav
Pre-gap length 0:00:04.02
Peak level 98.1 %
Extraction speed 5.9 X
Track quality 100.0 %
Test CRC F0D021FE
Copy CRC F0D021FE
Track not present in AccurateRip database
Copy OK
Track 3
Filename P:\DL\Edward Perraud - Beyond the Predictable Touch (2015) [FLAC]\03 - Nun Komm.wav
Pre-gap length 0:00:02.66
Peak level 98.1 %
Extraction speed 6.5 X
Track quality 100.0 %
Test CRC A363678A
Copy CRC A363678A
Track not present in AccurateRip database
Copy OK
Track 4
Filename P:\DL\Edward Perraud - Beyond the Predictable Touch (2015) [FLAC]\04 - Mal pour un Bien.wav
Pre-gap length 0:00:05.00
Peak level 98.1 %
Extraction speed 7.3 X
Track quality 100.0 %
Test CRC 9548F5A2
Copy CRC 9548F5A2
Track not present in AccurateRip database
Copy OK
Track 5
Filename P:\DL\Edward Perraud - Beyond the Predictable Touch (2015) [FLAC]\05 - Touch.wav
Pre-gap length 0:00:06.16
Peak level 98.1 %
Extraction speed 7.9 X
Track quality 100.0 %
Test CRC E0E90217
Copy CRC E0E90217
Track not present in AccurateRip database
Copy OK
Track 6
Filename P:\DL\Edward Perraud - Beyond the Predictable Touch (2015) [FLAC]\06 - Lascia Fare Mi.wav
Pre-gap length 0:00:05.24
Peak level 98.1 %
Extraction speed 8.5 X
Track quality 100.0 %
Test CRC 08278BD4
Copy CRC 08278BD4
Track not present in AccurateRip database
Copy OK
Track 7
Filename P:\DL\Edward Perraud - Beyond the Predictable Touch (2015) [FLAC]\07 - Suranne.wav
Pre-gap length 0:00:04.85
Peak level 98.1 %
Extraction speed 8.8 X
Track quality 100.0 %
Test CRC 81E1EBAA
Copy CRC 81E1EBAA
Track not present in AccurateRip database
Copy OK
Track 8
Filename P:\DL\Edward Perraud - Beyond the Predictable Touch (2015) [FLAC]\08 - Sad Time.wav
Pre-gap length 0:00:03.00
Peak level 98.1 %
Extraction speed 8.7 X
Track quality 100.0 %
Test CRC 00F0D07E
Copy CRC 00F0D07E
Track not present in AccurateRip database
Copy OK
Track 9
Filename P:\DL\Edward Perraud - Beyond the Predictable Touch (2015) [FLAC]\09 - Captain Universe.wav
Pre-gap length 0:00:03.40
Peak level 98.1 %
Extraction speed 9.8 X
Track quality 100.0 %
Test CRC 54885382
Copy CRC 54885382
Track not present in AccurateRip database
Copy OK
Track 10
Filename P:\DL\Edward Perraud - Beyond the Predictable Touch (2015) [FLAC]\10 - Democrazy.wav
Pre-gap length 0:00:08.00
Peak level 98.1 %
Extraction speed 10.1 X
Track quality 100.0 %
Test CRC 9571D3E2
Copy CRC 9571D3E2
Track not present in AccurateRip database
Copy OK
None of the tracks are present in the AccurateRip database
No errors occurred
End of status report
---- CUETools DB Plugin V2.1.6
[CTDB TOCID: IFino5QynQjHsMmWk.Vun_YmR7Y-] found
Submit result:
Track | CTDB Status
1 | (1/1) Accurately ripped
2 | (1/1) Accurately ripped
3 | (1/1) Accurately ripped
4 | (1/1) Accurately ripped
5 | (1/1) Accurately ripped
6 | (1/1) Accurately ripped
7 | (1/1) Accurately ripped
8 | (1/1) Accurately ripped
9 | (1/1) Accurately ripped
10 | (1/1) Accurately ripped
==== Log checksum 83EA77C1E9C3C2B6DE33AD3C6C1C9A753A3B2756E984385870DA9E4BD895EBD0 ====
 
Содержание индексной карты (.CUE)
REM GENRE Jazz
REM DATE 2015
REM DISCID 950FB50A
REM COMMENT "ExactAudioCopy v1.1"
PERFORMER "Edward Perraud"
TITLE "Beyond the Predictable Touch"
FILE "01 - Entrailles.wav" WAVE
TRACK 01 AUDIO
TITLE "Entrailles"
PERFORMER "Edward Perraud"
INDEX 01 00:00:00
TRACK 02 AUDIO
TITLE "Te Koop Te Huur"
PERFORMER "Edward Perraud"
INDEX 00 04:48:71
FILE "02 - Te Koop Te Huur.wav" WAVE
INDEX 01 00:00:00
TRACK 03 AUDIO
TITLE "Nun Komm"
PERFORMER "Edward Perraud"
INDEX 00 06:52:37
FILE "03 - Nun Komm.wav" WAVE
INDEX 01 00:00:00
TRACK 04 AUDIO
TITLE "Mal pour un Bien"
PERFORMER "Edward Perraud"
INDEX 00 05:56:58
FILE "04 - Mal pour un Bien.wav" WAVE
INDEX 01 00:00:00
TRACK 05 AUDIO
TITLE "Touch"
PERFORMER "Edward Perraud"
INDEX 00 06:53:48
FILE "05 - Touch.wav" WAVE
INDEX 01 00:00:00
TRACK 06 AUDIO
TITLE "Lascia Fare Mi"
PERFORMER "Edward Perraud"
INDEX 00 07:26:64
FILE "06 - Lascia Fare Mi.wav" WAVE
INDEX 01 00:00:00
TRACK 07 AUDIO
TITLE "Surannй"
PERFORMER "Edward Perraud"
INDEX 00 07:40:54
FILE "07 - Suranne.wav" WAVE
INDEX 01 00:00:00
TRACK 08 AUDIO
TITLE "Sad Time"
PERFORMER "Edward Perraud"
INDEX 00 05:54:09
FILE "08 - Sad Time.wav" WAVE
INDEX 01 00:00:00
TRACK 09 AUDIO
TITLE "Captain Universe"
PERFORMER "Edward Perraud"
INDEX 00 03:45:34
FILE "09 - Captain Universe.wav" WAVE
INDEX 01 00:00:00
TRACK 10 AUDIO
TITLE "Democrazy"
PERFORMER "Edward Perraud"
INDEX 00 09:16:13
FILE "10 - Democrazy.wav" WAVE
INDEX 01 00:00:00
По всем вопросам пишите личное сообщение пользователю M0p94ok.
15:24
119
Нет комментариев. Ваш будет первым!