Вы используете незарегистрированную версию компонента "Вкладки"!

Поиск

(Avant-Garde Jazz, Post-Bop) [CD] Carolyn Hume & Paul May - Zero - 2000, FLAC (tracks+.cue), lossless

(Avant-Garde Jazz, Post-Bop) [CD] Carolyn Hume & Paul May - Zero - 2000, FLAC (tracks+.cue), lossless
Треклист:
Carolyn Hume & Paul May - Zero
Жанр: Avant-Garde Jazz, Post-Bop
Носитель: CD
Страна-производитель диска (релиза): Великобритания
Год издания: 2000
Издатель (лейбл): Leo Lab
Номер по каталогу: LEO LAB CD 066
Аудиокодек: FLAC (*.flac)
Тип рипа: tracks+.cue
Битрейт аудио: lossless
Продолжительность: 56:06
Источник (релизер): WarehouseMouse (what)
Наличие сканов в содержимом раздачи: нет
Треклист:
01. Pet Moth (Hume-May) - 7:39
02. Rank Habits (Hume-May) - 5:47
03. In Praise (Hume-May) - 7:12
04. Smell the Joy (Hume-May) - 3:15
05. Black Clouds (Hume-May) - 4:18
06. Grey Gulls Wheeling (Hume-May) - 6:01
07. Pontius (Hume-May) - 9:51
08. Last Dance (Hume-May) - 9:58
09. Prelude (Hume-May) - 2:05
Состав:
Carolyn Hume - piano, keyboards, tenor recorder
Paul May - drums
Duke Garwood - clarinet (#5,7)
Neil May - bass (#5)
Recorded at the Conference Room, Southall in October 1999.
 
Лог создания рипа
Exact Audio Copy V1.0 beta 3 from 29. August 2011
EAC extraction logfile from 31. July 2015, 17:46
Carolyn Hume & Paul May / Zero
Used drive : HL-DT-STDVDRAM SP80NB60 Adapter: 0 ID: 0
Read mode : Secure
Utilize accurate stream : Yes
Defeat audio cache : Yes
Make use of C2 pointers : No
Read offset correction : 6
Overread into Lead-In and Lead-Out : No
Fill up missing offset samples with silence : Yes
Delete leading and trailing silent blocks : No
Null samples used in CRC calculations : Yes
Used interface : Native Win32 interface for Win NT & 2000
Gap handling : Appended to previous track
Used output format : User Defined Encoder
Selected bitrate : 1024 kBit/s
Quality : High
Add ID3 tag : No
Command line compressor : C:\Program Files (x86)\FLAC\flac.exe
Additional command line options : -8 -V -T "ARTIST=%artist%" -T "TITLE=%title%" -T "ALBUM=%albumtitle%" -T "DATE=%year%" -T "TRACKNUMBER=%tracknr%" -T "GENRE=%genre%" -T "PERFORMER=%albuminterpret%" -T "COMPOSER=%composer%" %haslyrics%--tag-from-file=LYRICS="%lyricsfile%"%haslyrics% -T "ALBUMARTIST=%albumartist%" -T "DISCNUMBER=%cdnumber%" -T "TOTALDISCS=%totalcds%" -T "TOTALTRACKS=%numtracks%" -T "COMMENT=%comment%" %source% -o %dest%
TOC of the extracted CD
Track | Start | Length | Start sector | End sector
---------------------------------------------------------
1 | 0:00.00 | 7:38.45 | 0 | 34394
2 | 7:38.45 | 5:46.44 | 34395 | 60388
3 | 13:25.14 | 7:12.05 | 60389 | 92793
4 | 20:37.19 | 3:15.10 | 92794 | 107428
5 | 23:52.29 | 4:18.33 | 107429 | 126811
6 | 28:10.62 | 6:00.38 | 126812 | 153849
7 | 34:11.25 | 9:51.32 | 153850 | 198206
8 | 44:02.57 | 9:57.48 | 198207 | 243029
9 | 54:00.30 | 2:05.09 | 243030 | 252413
Track 1
Filename C:\EAC Rips\Carolyn Hume & Paul May - Zero (2000) [FLAC]\01 Pet Moth.wav
Pre-gap length 0:00:02.00
Peak level 59.9 %
Extraction speed 3.1 X
Track quality 100.0 %
Test CRC BF1FEF33
Copy CRC BF1FEF33
Accurately ripped (confidence 1) [520E6175] (AR v2)
Copy OK
Track 2
Filename C:\EAC Rips\Carolyn Hume & Paul May - Zero (2000) [FLAC]\02 Rank Habits.wav
Pre-gap length 0:00:03.60
Peak level 98.4 %
Extraction speed 3.2 X
Track quality 99.9 %
Test CRC 341B69D8
Copy CRC 341B69D8
Accurately ripped (confidence 1) [9A5AF438] (AR v2)
Copy OK
Track 3
Filename C:\EAC Rips\Carolyn Hume & Paul May - Zero (2000) [FLAC]\03 In Praise.wav
Pre-gap length 0:00:04.60
Peak level 87.1 %
Extraction speed 4.0 X
Track quality 100.0 %
Test CRC BA3D3C67
Copy CRC BA3D3C67
Accurately ripped (confidence 1) [257A6B62] (AR v2)
Copy OK
Track 4
Filename C:\EAC Rips\Carolyn Hume & Paul May - Zero (2000) [FLAC]\04 Smell the Joy.wav
Pre-gap length 0:00:03.60
Peak level 67.4 %
Extraction speed 3.9 X
Track quality 100.0 %
Test CRC 829EBEAF
Copy CRC 829EBEAF
Accurately ripped (confidence 1) [AC9DA71E] (AR v2)
Copy OK
Track 5
Filename C:\EAC Rips\Carolyn Hume & Paul May - Zero (2000) [FLAC]\05 Black Clouds.wav
Pre-gap length 0:00:03.60
Peak level 68.8 %
Extraction speed 4.2 X
Track quality 100.0 %
Test CRC 8FCC60AC
Copy CRC 8FCC60AC
Accurately ripped (confidence 1) [E27E134A] (AR v2)
Copy OK
Track 6
Filename C:\EAC Rips\Carolyn Hume & Paul May - Zero (2000) [FLAC]\06 Grey Gulls Wheeling.wav
Pre-gap length 0:00:03.60
Peak level 75.3 %
Extraction speed 4.1 X
Track quality 99.9 %
Test CRC B2DF2493
Copy CRC B2DF2493
Accurately ripped (confidence 1) [2ED87AA5] (AR v2)
Copy OK
Track 7
Filename C:\EAC Rips\Carolyn Hume & Paul May - Zero (2000) [FLAC]\07 Pontius.wav
Pre-gap length 0:00:00.60
Peak level 80.1 %
Extraction speed 5.3 X
Track quality 100.0 %
Test CRC E50168DD
Copy CRC E50168DD
Accurately ripped (confidence 1) [460E5425] (AR v2)
Copy OK
Track 8
Filename C:\EAC Rips\Carolyn Hume & Paul May - Zero (2000) [FLAC]\08 Last Dance.wav
Pre-gap length 0:00:03.58
Peak level 74.2 %
Extraction speed 5.7 X
Track quality 100.0 %
Test CRC 267E112F
Copy CRC 267E112F
Accurately ripped (confidence 1) [B02381E2] (AR v2)
Copy OK
Track 9
Filename C:\EAC Rips\Carolyn Hume & Paul May - Zero (2000) [FLAC]\09 Prelude.wav
Pre-gap length 0:00:03.58
Peak level 38.0 %
Extraction speed 4.8 X
Track quality 100.0 %
Test CRC B88395BA
Copy CRC B88395BA
Accurately ripped (confidence 1) [3A26221A] (AR v2)
Copy OK
All tracks accurately ripped
No errors occurred
End of status report
---- CUETools DB Plugin V2.1.3
[CTDB TOCID: _d4YaZpZ7HmR9_agjO2wKtnnq2w-] found, Submit result: _d4YaZpZ7HmR9_agjO2wKtnnq2w- has been confirmed
[e5e05c68] (1/1) Accurately ripped
==== Log checksum CA76020AF09B68ED21B3117F9B7B1F6555834B6C7220C96846F0A0661244C49A ====
 
Содержание индексной карты (.CUE)
REM GENRE Jazz
REM DATE 2000
REM DISCID 6D0D2509
REM COMMENT "ExactAudioCopy v1.0b3"
PERFORMER "Carolyn Hume & Paul May"
TITLE "Zero"
FILE "01 - Pet Moth.wav" WAVE
TRACK 01 AUDIO
TITLE "Pet Moth"
PERFORMER "Carolyn Hume & Paul May"
INDEX 01 00:00:00
TRACK 02 AUDIO
TITLE "Rank Habits"
PERFORMER "Carolyn Hume & Paul May"
INDEX 00 07:35:00
FILE "02 - Rank Habits.wav" WAVE
INDEX 01 00:00:00
TRACK 03 AUDIO
TITLE "In Praise"
PERFORMER "Carolyn Hume & Paul May"
INDEX 00 05:41:74
FILE "03 - In Praise.wav" WAVE
INDEX 01 00:00:00
TRACK 04 AUDIO
TITLE "Smell the Joy"
PERFORMER "Carolyn Hume & Paul May"
INDEX 00 07:08:35
FILE "04 - Smell the Joy.wav" WAVE
INDEX 01 00:00:00
TRACK 05 AUDIO
TITLE "Black Clouds"
PERFORMER "Carolyn Hume & Paul May"
INDEX 00 03:11:40
FILE "05 - Black Clouds.wav" WAVE
INDEX 01 00:00:00
TRACK 06 AUDIO
TITLE "Grey Gulls Wheeling"
PERFORMER "Carolyn Hume & Paul May"
INDEX 00 04:14:63
FILE "06 - Grey Gulls Wheeling.wav" WAVE
INDEX 01 00:00:00
TRACK 07 AUDIO
TITLE "Pontius"
PERFORMER "Carolyn Hume & Paul May"
INDEX 00 05:59:68
FILE "07 - Pontius.wav" WAVE
INDEX 01 00:00:00
TRACK 08 AUDIO
TITLE "Last Dance"
PERFORMER "Carolyn Hume & Paul May"
INDEX 00 09:47:63
FILE "08 - Last Dance.wav" WAVE
INDEX 01 00:00:00
TRACK 09 AUDIO
TITLE "Prelude"
PERFORMER "Carolyn Hume & Paul May"
INDEX 00 09:54:04
FILE "09 - Prelude.wav" WAVE
INDEX 01 00:00:00
 
Отчет CUETools
[CUETools log; Date: 30.08.2015 1:15:11; Version: 2.1.5]
[CTDB TOCID: _d4YaZpZ7HmR9_agjO2wKtnnq2w-] found.
Track | CTDB Status
1 | (2/2) Accurately ripped
2 | (2/2) Accurately ripped
3 | (2/2) Accurately ripped
4 | (2/2) Accurately ripped
5 | (2/2) Accurately ripped
6 | (2/2) Accurately ripped
7 | (2/2) Accurately ripped
8 | (2/2) Accurately ripped
9 | (2/2) Accurately ripped
[AccurateRip ID: 00135e48-008dcd6f-6d0d2509] found.
Track [ CRC | V2 ] Status
01 [a4ceded0|520e6175] (0+1/1) Accurately ripped
02 [397adb56|9a5af438] (0+1/1) Accurately ripped
03 [08df9248|257a6b62] (0+1/1) Accurately ripped
04 [2d63a88e|ac9da71e] (0+1/1) Accurately ripped
05 [3a96033f|e27e134a] (0+1/1) Accurately ripped
06 [f0b32ace|2ed87aa5] (0+1/1) Accurately ripped
07 [588ce1a9|460e5425] (0+1/1) Accurately ripped
08 [8706dc89|b02381e2] (0+1/1) Accurately ripped
09 [bb737932|3a26221a] (0+1/1) Accurately ripped
Track Peak [ CRC32 ] [W/O NULL] [ LOG ]
-- 98,4 [6391A5C2] [9AB31A2E]
01 59,9 [BF1FEF33] [22D1292E] CRC32
02 98,4 [341B69D8] [C30E2F3D] CRC32
03 87,1 [BA3D3C67] [BEDEC950] CRC32
04 67,4 [829EBEAF] [71E40FC5] CRC32
05 68,8 [8FCC60AC] [BD381689] CRC32
06 75,3 [B2DF2493] [522F1B20] CRC32
07 80,1 [E50168DD] [8A862B9E] CRC32
08 74,2 [267E112F] [D42EA02A] CRC32
09 38,0 [B88395BA] [E5FCD4E7] CRC32
 
AllMusic Review by Steve Loewy
This soft, gentle, minimalist recording may surprise some who are accustomed to the radical free improvisation usually associated with the Leo Records Laboratory label. While labeling music is always a difficult venture, this one falls somewhere just this side of new age. Pianist Carol Hume and drummer Paul May have a clear vision of their music: it is the sort you might find associated with crystals, the kind pumped into the sound systems of retail shops at upscale beach resorts. It is relaxing, quiet, and soothing, not too demanding, but not very challenging, either. Hume and May are accomplished players, in synch with one another, and this project is clearly the result of substantial preparation. Every now and then, there are crevices where innovative snippets are inserted, but these are rare. Bassist Neil May is added on one piece, and clarinetist Duke Garwood contributes to the tonal palette on a couple, but the other tracks are duets between piano (or keyboards) and drums. The cover landscape drawing and the interior photo of seagulls reflect the contemplative, almost saccharine mood that seems to expand with each track. While there is certainly a place for this sort of music, it bares little relation to the jazz tradition, and is a curious addition to the usually extraordinarily adventurous Leo Lab label.
По всем вопросам пишите личное сообщение пользователю M0p94ok.
15:21
153
Нет комментариев. Ваш будет первым!