Вы используете незарегистрированную версию компонента "Вкладки"!

Поиск

(Avant-Garde Jazz, Post-Bop) [CD] Carolyn Hume - Solo Piano Works - 2006, FLAC (tracks+.cue), lossless

(Avant-Garde Jazz, Post-Bop) [CD] Carolyn Hume - Solo Piano Works - 2006, FLAC (tracks+.cue), lossless
Треклист:
Carolyn Hume - Solo Piano Works
Жанр: Avant-Garde Jazz, Post-Bop
Носитель: CD
Страна-производитель диска (релиза): Великобритания
Год издания: 2006
Издатель (лейбл): Leo Records
Номер по каталогу: CD LR 478
Аудиокодек: FLAC (*.flac)
Тип рипа: tracks+.cue
Битрейт аудио: lossless
Продолжительность: 58:24
Источник (релизер): WarehouseMouse (what)
Наличие сканов в содержимом раздачи: нет
Треклист:
01. Edge of Restraint (Hume) - 5:48
02. Obsession (Hume) - 7:21
03. In Absence (Hume) - 8:02
04. "Ust Izhma 1944" (Hume) - 6:17
05. In This Dark Silence (Hume) - 4:49
06. Winter Call (Hume) - 6:26
07. Solitude & Madness (Hume) - 3:54
08. Ephemere (Hume) - 10:23
09. Exagoge (Hume) - 5:24
Состав:
Carolyn Hume - piano
Recorded at Cookies Studio.
 
Лог создания рипа
Exact Audio Copy V1.0 beta 3 from 29. August 2011
EAC extraction logfile from 4. August 2015, 16:07
Carolyn Hume / Solo Piano Works
Used drive : HL-DT-STDVDRAM SP80NB60 Adapter: 0 ID: 0
Read mode : Secure
Utilize accurate stream : Yes
Defeat audio cache : Yes
Make use of C2 pointers : No
Read offset correction : 6
Overread into Lead-In and Lead-Out : No
Fill up missing offset samples with silence : Yes
Delete leading and trailing silent blocks : No
Null samples used in CRC calculations : Yes
Used interface : Native Win32 interface for Win NT & 2000
Gap handling : Appended to previous track
Used output format : User Defined Encoder
Selected bitrate : 1024 kBit/s
Quality : High
Add ID3 tag : No
Command line compressor : C:\Program Files (x86)\FLAC\flac.exe
Additional command line options : -8 -V -T "ARTIST=%artist%" -T "TITLE=%title%" -T "ALBUM=%albumtitle%" -T "DATE=%year%" -T "TRACKNUMBER=%tracknr%" -T "GENRE=%genre%" -T "PERFORMER=%albuminterpret%" -T "COMPOSER=%composer%" %haslyrics%--tag-from-file=LYRICS="%lyricsfile%"%haslyrics% -T "ALBUMARTIST=%albumartist%" -T "DISCNUMBER=%cdnumber%" -T "TOTALDISCS=%totalcds%" -T "TOTALTRACKS=%numtracks%" -T "COMMENT=%comment%" %source% -o %dest%
TOC of the extracted CD
Track | Start | Length | Start sector | End sector
---------------------------------------------------------
1 | 0:00.00 | 5:47.51 | 0 | 26075
2 | 5:47.51 | 7:20.38 | 26076 | 59113
3 | 13:08.14 | 8:01.58 | 59114 | 95246
4 | 21:09.72 | 6:16.62 | 95247 | 123508
5 | 27:26.59 | 4:49.32 | 123509 | 145215
6 | 32:16.16 | 6:25.44 | 145216 | 174134
7 | 38:41.60 | 3:54.33 | 174135 | 191717
8 | 42:36.18 | 10:22.55 | 191718 | 238422
9 | 52:58.73 | 5:23.52 | 238423 | 262699
Track 1
Filename C:\EAC Rips\Carolyn Hume - Solo Piano Works (2006) [FLAC]\01 edge of restraint.wav
Pre-gap length 0:00:02.00
Peak level 79.4 %
Extraction speed 2.8 X
Track quality 100.0 %
Test CRC E9859A8B
Copy CRC E9859A8B
Track not present in AccurateRip database
Copy OK
Track 2
Filename C:\EAC Rips\Carolyn Hume - Solo Piano Works (2006) [FLAC]\02 obsession.wav
Peak level 74.5 %
Extraction speed 3.4 X
Track quality 100.0 %
Test CRC FDC91587
Copy CRC FDC91587
Track not present in AccurateRip database
Copy OK
Track 3
Filename C:\EAC Rips\Carolyn Hume - Solo Piano Works (2006) [FLAC]\03 in absence.wav
Pre-gap length 0:00:03.66
Peak level 99.9 %
Extraction speed 3.9 X
Track quality 100.0 %
Test CRC DE6E6B72
Copy CRC DE6E6B72
Track not present in AccurateRip database
Copy OK
Track 4
Filename C:\EAC Rips\Carolyn Hume - Solo Piano Works (2006) [FLAC]\04 Ust Izhma 1944.wav
Pre-gap length 0:00:03.26
Peak level 100.0 %
Extraction speed 3.7 X
Track quality 99.9 %
Test CRC E63332F2
Copy CRC E63332F2
Track not present in AccurateRip database
Copy OK
Track 5
Filename C:\EAC Rips\Carolyn Hume - Solo Piano Works (2006) [FLAC]\05 in this dark silence.wav
Pre-gap length 0:00:03.00
Peak level 90.2 %
Extraction speed 4.3 X
Track quality 100.0 %
Test CRC 03CAB4F7
Copy CRC 03CAB4F7
Track not present in AccurateRip database
Copy OK
Track 6
Filename C:\EAC Rips\Carolyn Hume - Solo Piano Works (2006) [FLAC]\06 winter call.wav
Pre-gap length 0:00:02.00
Peak level 99.9 %
Extraction speed 4.7 X
Track quality 100.0 %
Test CRC E93B2BED
Copy CRC E93B2BED
Track not present in AccurateRip database
Copy OK
Track 7
Filename C:\EAC Rips\Carolyn Hume - Solo Piano Works (2006) [FLAC]\07 solitude & madness.wav
Pre-gap length 0:00:03.66
Peak level 100.0 %
Extraction speed 4.6 X
Track quality 100.0 %
Test CRC DFDCC683
Copy CRC DFDCC683
Track not present in AccurateRip database
Copy OK
Track 8
Filename C:\EAC Rips\Carolyn Hume - Solo Piano Works (2006) [FLAC]\08 ephemere.wav
Pre-gap length 0:00:05.60
Peak level 100.0 %
Extraction speed 5.4 X
Track quality 100.0 %
Test CRC 4D1A7762
Copy CRC 4D1A7762
Track not present in AccurateRip database
Copy OK
Track 9
Filename C:\EAC Rips\Carolyn Hume - Solo Piano Works (2006) [FLAC]\09 exagoge.wav
Pre-gap length 0:00:05.68
Peak level 28.5 %
Extraction speed 4.7 X
Track quality 99.9 %
Test CRC 0F853B2E
Copy CRC 0F853B2E
Track not present in AccurateRip database
Copy OK
None of the tracks are present in the AccurateRip database
No errors occurred
End of status report
---- CUETools DB Plugin V2.1.3
[CTDB TOCID: rPm5KpXiGUSlnNH52gmLplV2PXI-] found, Submit result: rPm5KpXiGUSlnNH52gmLplV2PXI- has been confirmed
[d80fc9cd] (2/2) Accurately ripped
==== Log checksum 72CC36CA227B8E2617F30D1A2B06982A26C4C3045611881E4E36DA876E69A87E ====
 
Содержание индексной карты (.CUE)
REM GENRE Jazz
REM DATE 2006
REM DISCID 7F0DAE09
REM COMMENT "ExactAudioCopy v1.0b3"
PERFORMER "Carolyn Hume"
TITLE "Solo Piano Works"
FILE "01 - Edge of Restraint.wav" WAVE
TRACK 01 AUDIO
TITLE "Edge of Restraint"
PERFORMER "Carolyn Hume"
INDEX 01 00:00:00
FILE "02 - Obsession.wav" WAVE
TRACK 02 AUDIO
TITLE "Obsession"
PERFORMER "Carolyn Hume"
INDEX 01 00:00:00
TRACK 03 AUDIO
TITLE "In Absence"
PERFORMER "Carolyn Hume"
INDEX 00 07:16:63
FILE "03 - In Absence.wav" WAVE
INDEX 01 00:00:00
TRACK 04 AUDIO
TITLE "Ust Izhma 1944"
PERFORMER "Carolyn Hume"
INDEX 00 07:58:38
FILE "04 - Ust Izhma 1944.wav" WAVE
INDEX 01 00:00:00
TRACK 05 AUDIO
TITLE "In This Dark Silence"
PERFORMER "Carolyn Hume"
INDEX 00 06:13:62
FILE "05 - In This Dark Silence.wav" WAVE
INDEX 01 00:00:00
TRACK 06 AUDIO
TITLE "Winter Call"
PERFORMER "Carolyn Hume"
INDEX 00 04:47:32
FILE "06 - Winter Call.wav" WAVE
INDEX 01 00:00:00
TRACK 07 AUDIO
TITLE "Solitude & Madness"
PERFORMER "Carolyn Hume"
INDEX 00 06:21:69
FILE "07 - Solitude & Madness.wav" WAVE
INDEX 01 00:00:00
TRACK 08 AUDIO
TITLE "Ephemere"
PERFORMER "Carolyn Hume"
INDEX 00 03:48:63
FILE "08 - Ephemere.wav" WAVE
INDEX 01 00:00:00
TRACK 09 AUDIO
TITLE "Exagoge"
PERFORMER "Carolyn Hume"
INDEX 00 10:17:04
FILE "09 - Exagoge.wav" WAVE
INDEX 01 00:00:00
 
Отчет CUETools
[CUETools log; Date: 30.08.2015 1:00:40; Version: 2.1.5]
[CTDB TOCID: rPm5KpXiGUSlnNH52gmLplV2PXI-] found.
Track | CTDB Status
1 | (3/3) Accurately ripped
2 | (3/3) Accurately ripped
3 | (3/3) Accurately ripped
4 | (3/3) Accurately ripped
5 | (3/3) Accurately ripped
6 | (3/3) Accurately ripped
7 | (3/3) Accurately ripped
8 | (3/3) Accurately ripped
9 | (3/3) Accurately ripped
[AccurateRip ID: 0014152a-0092dcf4-7f0dae09] disk not present in database.
Track Peak [ CRC32 ] [W/O NULL] [ LOG ]
-- 100,0 [56F27D95] [732B23FB]
01 79,4 [E9859A8B] [FF55AE75] CRC32
02 74,5 [FDC91587] [F8429105] CRC32
03 99,9 [DE6E6B72] [C266F03A] CRC32
04 100,0 [E63332F2] [4689BE4E] CRC32
05 90,2 [03CAB4F7] [F13C49EA] CRC32
06 99,9 [E93B2BED] [50C8314C] CRC32
07 100,0 [DFDCC683] [4D792629] CRC32
08 99,9 [4D1A7762] [900D03EE] CRC32
09 28,5 [0F853B2E] [21078A4F] CRC32
 
Review by John Eyles
For her fifth album since the turn of the millennium, all released on Leo, Carolyn Hume breaks the pattern of the previous four. Firstly, she is no longer paired with drummer Paul May, instead opting to play solo. Secondly, she only plays piano here, rather than adding other keyboards and recorder as before. The pared-back approach suits the music well, showing it off to best effect.
In the past, among other things, Hume's music has been described as "chill out. While it is easy on the ear and unwinds at its own pace without any gratuitous displays of virtuosity or pyrotechnics, it is not easy listening—at least not in the pejorative sense of the phrase. It is music that can be used as background, without causing offence, but the more attention is paid to it, the more it delivers.
The music is "mainly improvised, but it is impossible to detect the joins between sections that are improvised and those that are not. It has an easy, natural ebb and flow. Throughout, it is full of melody and harmony, replete with repetition which recalls Satie, Eno, Harold Budd and various minimalists (and also Lola Perrin, who is currently working in a very similar vein to Hume). The longest track, "Ephemere, is also one of the best, typifying the album's strengths.
По всем вопросам пишите личное сообщение пользователю M0p94ok.
15:20
138
Нет комментариев. Ваш будет первым!