Поиск

(Experimental, Avant-Garde Jazz) [CD] Jokleba! (Per Jorgensen, Audun Kleive, Jon Balke) - Live! - 1996, FLAC (tracks+.cue), lossless

(Experimental, Avant-Garde Jazz) [CD] Jokleba! (Per Jorgensen, Audun Kleive, Jon Balke) - Live! - 1996, FLAC (tracks+.cue), lossless
Треклист:
Jokleba! - Live!
Жанр: Experimental, Avant-Garde Jazz
Носитель: CD
Страна-производитель диска (релиза): Норвегия
Год издания: 1996
Издатель (лейбл): Curling Legs
Номер по каталогу: C.L.P. CD 22
Аудиокодек: FLAC (*.flac)
Тип рипа: tracks+.cue
Битрейт аудио: lossless
Продолжительность: 59:23
Источник (релизер): Totningen (what)
Наличие сканов в содержимом раздачи: да
Треклист:
01. Ouverture (Kleive-Balke-Jorgensen) - 8:17
02. Apne mitt oye (Trad.) - 4:38
03. Titall (Kleive-Balke-Jorgensen) - 4:50
04. Svai (Balke) - 3:24
05. Second Z (Kleive-Balke-Jorgensen) - 10:54
06. In a Sentimental Mood (Ellington) - 5:33
07. Igor (Kleive-Balke-Jorgensen) - 8:01
08. Aerodynamics (Kleive-Balke-Jorgensen) - 4:30
09. You Don't Know What Love Is (Raye-DePaul) - 4:48
10. Mayshia (Davis) - 4:28
Состав:
Jon Balke - piano, keyboards
Audun Kleive - drums
Per Jorgensen - trumpet, vocals, percussion
Recorded live at the Pustervikteatern during Goteborg Jazzdager Festival on July 7, 1994.
 
Лог создания рипа
Exact Audio Copy V1.0 beta 3 from 29. August 2011
EAC extraction logfile from 1. November 2012, 23:32
Jøkleba! / Live!
Used drive : PLEXTOR CD-R PX-240A Adapter: 4 ID: 0
Read mode : Secure
Utilize accurate stream : Yes
Defeat audio cache : Yes
Make use of C2 pointers : No
Read offset correction : 6
Overread into Lead-In and Lead-Out : No
Fill up missing offset samples with silence : Yes
Delete leading and trailing silent blocks : No
Null samples used in CRC calculations : Yes
Used interface : Native Win32 interface for Win NT & 2000
Gap handling : Appended to previous track
Used output format : User Defined Encoder
Selected bitrate : 1024 kBit/s
Quality : High
Add ID3 tag : No
Command line compressor : C:\Program Files (x86)\Exact Audio Copy\FLAC\FLAC.EXE
Additional command line options : -8 -V -T "ARTIST=%artist%" -T "TITLE=%title%" -T "ALBUM=%albumtitle%" -T "DATE=%year%" -T "TRACKNUMBER=%tracknr%" -T "GENRE=%genre%" -T "PERFORMER=%albuminterpret%" -T "COMPOSER=%composer%" %haslyrics%--tag-from-file=LYRICS="%lyricsfile%"%haslyrics% -T "ALBUMARTIST=%albumartist%" -T "DISCNUMBER=%cdnumber%" -T "TOTALDISCS=%totalcds%" -T "TOTALTRACKS=%numtracks%" -T "COMMENT=%comment%" %source% -o %dest%
TOC of the extracted CD
Track | Start | Length | Start sector | End sector
---------------------------------------------------------
1 | 0:00.00 | 8:16.57 | 0 | 37256
2 | 8:16.57 | 4:38.15 | 37257 | 58121
3 | 12:54.72 | 4:49.68 | 58122 | 79864
4 | 17:44.65 | 3:24.05 | 79865 | 95169
5 | 21:08.70 | 10:53.65 | 95170 | 144209
6 | 32:02.60 | 5:32.72 | 144210 | 169181
7 | 37:35.57 | 8:00.65 | 169182 | 205246
8 | 45:36.47 | 4:30.33 | 205247 | 225529
9 | 50:07.05 | 4:48.32 | 225530 | 247161
10 | 54:55.37 | 4:27.43 | 247162 | 267229
Track 1
Filename D:\Downloads\BigSlice\Music\Uploads\Jøkleba!\Live!\01. Ouverture.wav
Pre-gap length 0:00:02.00
Peak level 98.0 %
Extraction speed 6.2 X
Track quality 100.0 %
Test CRC 868E1D86
Copy CRC 868E1D86
Accurately ripped (confidence 3) [574CC599] (AR v1)
Copy OK
Track 2
Filename D:\Downloads\BigSlice\Music\Uploads\Jøkleba!\Live!\02. Åpne mitt øye.wav
Peak level 96.0 %
Extraction speed 6.1 X
Track quality 99.9 %
Test CRC 37C631B3
Copy CRC 37C631B3
Accurately ripped (confidence 3) [728B77C1] (AR v1)
Copy OK
Track 3
Filename D:\Downloads\BigSlice\Music\Uploads\Jøkleba!\Live!\03. Titall.wav
Peak level 98.0 %
Extraction speed 7.4 X
Track quality 100.0 %
Test CRC E39B03A7
Copy CRC E39B03A7
Accurately ripped (confidence 3) [DC28E2A8] (AR v1)
Copy OK
Track 4
Filename D:\Downloads\BigSlice\Music\Uploads\Jøkleba!\Live!\04. Svai.wav
Peak level 98.0 %
Extraction speed 7.4 X
Track quality 100.0 %
Test CRC E1DE0B09
Copy CRC E1DE0B09
Accurately ripped (confidence 3) [8207F9D6] (AR v1)
Copy OK
Track 5
Filename D:\Downloads\BigSlice\Music\Uploads\Jøkleba!\Live!\05. Second Z.wav
Peak level 98.0 %
Extraction speed 8.8 X
Track quality 100.0 %
Test CRC FBC6DB1B
Copy CRC FBC6DB1B
Accurately ripped (confidence 3) [AD04EF8F] (AR v1)
Copy OK
Track 6
Filename D:\Downloads\BigSlice\Music\Uploads\Jøkleba!\Live!\06. In a Sentimental Mood.wav
Peak level 98.0 %
Extraction speed 8.5 X
Track quality 99.9 %
Test CRC E969942B
Copy CRC E969942B
Accurately ripped (confidence 3) [4337B6E3] (AR v1)
Copy OK
Track 7
Filename D:\Downloads\BigSlice\Music\Uploads\Jøkleba!\Live!\07. Igor.wav
Peak level 98.0 %
Extraction speed 10.2 X
Track quality 100.0 %
Test CRC 866C67ED
Copy CRC 866C67ED
Accurately ripped (confidence 3) [F190645D] (AR v1)
Copy OK
Track 8
Filename D:\Downloads\BigSlice\Music\Uploads\Jøkleba!\Live!\08. Aerodynamics.wav
Peak level 93.1 %
Extraction speed 10.2 X
Track quality 100.0 %
Test CRC E3C52D44
Copy CRC E3C52D44
Accurately ripped (confidence 3) [2F6D4F07] (AR v1)
Copy OK
Track 9
Filename D:\Downloads\BigSlice\Music\Uploads\Jøkleba!\Live!\09. You Don't Know What Love Is.wav
Peak level 97.2 %
Extraction speed 10.6 X
Track quality 100.0 %
Test CRC E3EA675C
Copy CRC E3EA675C
Accurately ripped (confidence 3) [36EA81B8] (AR v1)
Copy OK
Track 10
Filename D:\Downloads\BigSlice\Music\Uploads\Jøkleba!\Live!\10. Mayshia.wav
Peak level 98.0 %
Extraction speed 8.3 X
Track quality 99.9 %
Test CRC 49D9CC3C
Copy CRC 49D9CC3C
Accurately ripped (confidence 3) [F72B4E9E] (AR v1)
Copy OK
All tracks accurately ripped
No errors occurred
End of status report
---- CUETools DB Plugin V2.1.3
[CTDB TOCID: kfRzxzeCpvI4XI7N93DEg3kEI2E-] disk not present in database, Submit result: kfRzxzeCpvI4XI7N93DEg3kEI2E- has been uploaded
==== Log checksum 491396949294180DE95B479F8C15FC884FA5AA81340A6F546970C9EB50217F30 ====
 
Содержание индексной карты (.CUE)
REM GENRE Jazz
REM DATE 1996
REM DISCID 970DEB0A
REM COMMENT "ExactAudioCopy v1.0b3"
PERFORMER "Jokleba!"
TITLE "Live!"
FILE "01 - Ouverture.wav" WAVE
TRACK 01 AUDIO
TITLE "Ouverture"
PERFORMER "Jokleba!"
ISRC NOLEA9622010
INDEX 01 00:00:00
FILE "02 - Apne mitt oye.wav" WAVE
TRACK 02 AUDIO
TITLE "Apne mitt oye"
PERFORMER "Jokleba!"
ISRC NOLEA9622020
INDEX 01 00:00:00
FILE "03 - Titall.wav" WAVE
TRACK 03 AUDIO
TITLE "Titall"
PERFORMER "Jokleba!"
ISRC NOLEA9622030
INDEX 01 00:00:00
FILE "04 - Svai.wav" WAVE
TRACK 04 AUDIO
TITLE "Svai"
PERFORMER "Jokleba!"
ISRC NOLEA9622040
INDEX 01 00:00:00
FILE "05 - Second Z.wav" WAVE
TRACK 05 AUDIO
TITLE "Second Z"
PERFORMER "Jokleba!"
ISRC NOLEA9622050
INDEX 01 00:00:00
FILE "06 - In a Sentimental Mood.wav" WAVE
TRACK 06 AUDIO
TITLE "In a Sentimental Mood"
PERFORMER "Jokleba!"
ISRC NOLEA9622060
INDEX 01 00:00:00
FILE "07 - Igor.wav" WAVE
TRACK 07 AUDIO
TITLE "Igor"
PERFORMER "Jokleba!"
ISRC NOLEA9622070
INDEX 01 00:00:00
FILE "08 - Aerodynamics.wav" WAVE
TRACK 08 AUDIO
TITLE "Aerodynamics"
PERFORMER "Jokleba!"
ISRC NOLEA9622080
INDEX 01 00:00:00
FILE "09 - You Don't Know What Love Is.wav" WAVE
TRACK 09 AUDIO
TITLE "You Don't Know What Love Is"
PERFORMER "Jokleba!"
ISRC NOLEA9622090
INDEX 01 00:00:00
FILE "10 - Mayshia.wav" WAVE
TRACK 10 AUDIO
TITLE "Mayshia"
PERFORMER "Jokleba!"
ISRC NOLEA9622100
INDEX 01 00:00:00
 
Отчет CUETools
[CUETools log; Date: 30.08.2015 0:28:52; Version: 2.1.5]
[CTDB TOCID: kfRzxzeCpvI4XI7N93DEg3kEI2E-] found.
Track | CTDB Status
1 | (3/3) Accurately ripped
2 | (3/3) Accurately ripped
3 | (3/3) Accurately ripped
4 | (3/3) Accurately ripped
5 | (3/3) Accurately ripped
6 | (3/3) Accurately ripped
7 | (3/3) Accurately ripped
8 | (3/3) Accurately ripped
9 | (3/3) Accurately ripped
10 | (3/3) Accurately ripped
[AccurateRip ID: 0017548f-00b9cced-970deb0a] found.
Track [ CRC | V2 ] Status
01 [574cc599|77db9f5b] (3+0/3) Accurately ripped
02 [728b77c1|9c41d0c5] (3+0/3) Accurately ripped
03 [dc28e2a8|387a8d28] (3+0/3) Accurately ripped
04 [8207f9d6|aa85e56d] (3+0/3) Accurately ripped
05 [ad04ef8f|e7b7b986] (3+0/3) Accurately ripped
06 [4337b6e3|84e133d7] (3+0/3) Accurately ripped
07 [f190645d|9e2248c1] (3+0/3) Accurately ripped
08 [2f6d4f07|b0e45512] (3+0/3) Accurately ripped
09 [36ea81b8|ec5b0e06] (3+0/3) Accurately ripped
10 [f72b4e9e|8135da5c] (3+0/3) Accurately ripped
Track Peak [ CRC32 ] [W/O NULL] [ LOG ]
-- 98,0 [73F6D03C] [4D0E38D9]
01 98,0 [868E1D86] [7614333C] CRC32
02 96,0 [37C631B3] [4D1CEE1F] CRC32
03 98,0 [E39B03A7] [B478F9F5] CRC32
04 98,0 [E1DE0B09] [AA5FF255] CRC32
05 98,0 [FBC6DB1B] [BB44C42E] CRC32
06 98,0 [E969942B] [B154F704] CRC32
07 98,0 [866C67ED] [67479F40] CRC32
08 93,1 [E3C52D44] [2752D9E3] CRC32
09 97,2 [E3EA675C] [C4F9FB79] CRC32
10 98,0 [49D9CC3C] [E390B65E] CRC32
 
Об альбоме (сборнике)
Jøkleba where especially known for their Live performances, taking the concept of free improvisations to a new standard in collective interplay. This album features one of their really great performances, live from Gøteborg-Sweden.
14:19
282
Нет комментариев. Ваш будет первым!