Вы используете незарегистрированную версию компонента "Вкладки"!

Поиск

(Free Jazz, Free Improvisation) [CD] Mikolaj Trzaska, Rafal Mazur, Balazs Pandi - Tar & Feathers - 2014, FLAC (tracks+.cue), lossless

Треклист:
Trzaska, Mazur, Pándi / Tar & Feathers
Жанр: Free Jazz, Free Improvisation
Носитель: CD
Страна-производитель диска: Poland
Год издания: 2014
Издатель (лейбл): Gusstaff Records
Номер по каталогу: GRAM1402
Аудиокодек: FLAC (*.flac)
Тип рипа: tracks+.cue
Битрейт аудио: lossless
Продолжительность: 54:44
Источник (релизер): я
Наличие сканов в содержимом раздачи: да
Треклист:
1. Climbing Up the River 13:43
2. Tar and Feathers 7:24
3. Black Ice Crackle 8:04
4. Bout with Transparent Bottom 11:39
5. Patter of Seagulis 6:33
6. Bleeding Sky Resting on the Ground 7:20
All compositions by Trzaska / Mazur / Pándi.
Recorded during the concert at A38 Ship, Budapest, 31 October 2012.
Mikołaj Trzaska – Alto Sax & Bass Clarinet
Rafał Mazur – Acoustic Bass
Balázs Pándi – Drums
 
Лог создания рипа
Exact Audio Copy V1.0 beta 3 from 29. August 2011
EAC extraction logfile from 29. July 2014, 14:54
Trzaska, Mazur, Pándi / Tar & Feathers
Used drive : SlimtypeeNAU508 5 Adapter: 1 ID: 0
Read mode : Secure
Utilize accurate stream : Yes
Defeat audio cache : Yes
Make use of C2 pointers : No
Read offset correction : 6
Overread into Lead-In and Lead-Out : No
Fill up missing offset samples with silence : Yes
Delete leading and trailing silent blocks : No
Null samples used in CRC calculations : Yes
Used interface : Native Win32 interface for Win NT & 2000
Gap handling : Appended to previous track
Used output format : User Defined Encoder
Selected bitrate : 768 kBit/s
Quality : High
Add ID3 tag : No
Command line compressor : C:\Program Files (x86)\Exact Audio Copy\Flac\flac.exe
Additional command line options : -8 -V -T "ARTIST=%artist%" -T "TITLE=%title%" -T "ALBUM=%albumtitle%" -T "DATE=%year%" -T "TRACKNUMBER=%tracknr%" -T "TOTALTRACKS=%numtracks%" -T "GENRE=%genre%" -T "ALBUMARTIST=%albumartist%" -T "ALBUM ARTIST=%albumartist%" -T "COMMENT=EAC Secure Mode, Test & Copy, AccurateRip, FLAC -8" %source%
TOC of the extracted CD
Track | Start | Length | Start sector | End sector
---------------------------------------------------------
1 | 0:00.00 | 13:42.69 | 0 | 61718
2 | 13:42.69 | 7:24.24 | 61719 | 95042
3 | 21:07.18 | 8:04.31 | 95043 | 131373
4 | 29:11.49 | 11:39.27 | 131374 | 183825
5 | 40:51.01 | 6:32.62 | 183826 | 213287
6 | 47:23.63 | 7:20.37 | 213288 | 246324
Track 1
Filename C:\EAC rips\01 - Climbing Up the River.wav
Pre-gap length 0:00:02.00
Peak level 98.9 %
Extraction speed 2.6 X
Track quality 100.0 %
Test CRC 380FB4BF
Copy CRC 380FB4BF
Track not present in AccurateRip database
Copy OK
Track 2
Filename C:\EAC rips\02 - Tar and Feathers.wav
Peak level 100.0 %
Extraction speed 3.1 X
Track quality 100.0 %
Test CRC 3ED0DC41
Copy CRC 3ED0DC41
Track not present in AccurateRip database
Copy OK
Track 3
Filename C:\EAC rips\03 - Black Ice Crackle.wav
Peak level 99.9 %
Extraction speed 3.1 X
Track quality 99.9 %
Test CRC 71C7E521
Copy CRC 71C7E521
Track not present in AccurateRip database
Copy OK
Track 4
Filename C:\EAC rips\04 - Bout with Transparent Bottom.wav
Peak level 99.9 %
Extraction speed 3.9 X
Track quality 100.0 %
Test CRC B3AB723B
Copy CRC B3AB723B
Track not present in AccurateRip database
Copy OK
Track 5
Filename C:\EAC rips\05 - Patter of Seagulls.wav
Peak level 98.0 %
Extraction speed 4.1 X
Track quality 100.0 %
Test CRC C650B708
Copy CRC C650B708
Track not present in AccurateRip database
Copy OK
Track 6
Filename C:\EAC rips\06 - Bleeding Sky Resting on the Ground.wav
Peak level 98.5 %
Extraction speed 4.4 X
Track quality 100.0 %
Test CRC D8343C8C
Copy CRC D8343C8C
Track not present in AccurateRip database
Copy OK
None of the tracks are present in the AccurateRip database
No errors occurred
End of status report
---- CUETools DB Plugin V2.1.4
[CTDB TOCID: akhsy7f3m38IvtDfCvGIVFD4C3g-] disk not present in database
Submit result: akhsy7f3m38IvtDfCvGIVFD4C3g- has been uploaded
==== Log checksum 89076C828AA71F23C2BBDAB49FD1A27C8ADC187667553366A7804AF461E07547 ====
 
Содержание индексной карты (.CUE)
REM GENRE Jazz
REM DATE 2014
REM DISCID 530CD406
REM COMMENT "ExactAudioCopy v1.0b3"
PERFORMER "Trzaska, Mazur, Pándi"
TITLE "Tar & Feathers"
FILE "01 - Climbing Up the River.wav" WAVE
TRACK 01 AUDIO
TITLE "Climbing Up the River"
PERFORMER "Trzaska, Mazur, Pándi"
INDEX 01 00:00:00
FILE "02 - Tar and Feathers.wav" WAVE
TRACK 02 AUDIO
TITLE "Tar and Feathers"
PERFORMER "Trzaska, Mazur, Pándi"
INDEX 01 00:00:00
FILE "03 - Black Ice Crackle.wav" WAVE
TRACK 03 AUDIO
TITLE "Black Ice Crackle"
PERFORMER "Trzaska, Mazur, Pándi"
INDEX 01 00:00:00
FILE "04 - Bout with Transparent Bottom.wav" WAVE
TRACK 04 AUDIO
TITLE "Bout with Transparent Bottom "
PERFORMER "Trzaska, Mazur, Pándi"
INDEX 01 00:00:00
FILE "05 - Patter of Seagulls.wav" WAVE
TRACK 05 AUDIO
TITLE "Patter of Seagulls"
PERFORMER "Trzaska, Mazur, Pándi"
INDEX 01 00:00:00
FILE "06 - Bleeding Sky Resting on the Ground.wav" WAVE
TRACK 06 AUDIO
TITLE "Bleeding Sky Resting on the Ground"
PERFORMER "Trzaska, Mazur, Pándi"
INDEX 01 00:00:00
По всем вопросам пишите личное сообщение пользователю M0p94ok.
04:18
146
Нет комментариев. Ваш будет первым!