Поиск

(Avant-Garde Jazz, Electroacoustic, Free Improvisation) [CD] Tony Oxley & The B.I.M.P. Quartet (Philipp Wachsmann, Pat Thomas, Matt Wand) - Floating Phantoms - 2002, FLAC (tracks+.cue), lossless

(Avant-Garde Jazz, Electroacoustic, Free Improvisation) [CD] Tony Oxley & The B.I.M.P. Quartet (Philipp Wachsmann, Pat Thomas, Matt Wand) - Floating Phantoms - 2002, FLAC (tracks+.cue), lossless
Треклист:
Tony Oxley & The B.I.M.P. Quartet (Philipp Wachsmann, Pat Thomas, Matt Wand) / Floating Phantoms
Жанр: Avant-Garde Jazz, Electroacoustic, Free Improvisation
Носитель: CD
Страна-производитель диска: Germany
Год издания: 2002
Издатель (лейбл): a/l/l
Номер по каталогу: a/l/l 001
Страна: UK
Аудиокодек: FLAC (*.flac)
Тип рипа: tracks+.cue
Битрейт аудио: lossless
Продолжительность: 64:11
Источник (релизер): свой фирменный диск
Наличие сканов в содержимом раздачи:
Треклист:
1. Line In 14:44
2. Line Out 9:06
3. On Line 4:14
4. Stream Line 24:40
5. Beam Line 11:26
 
Лог создания рипа
Exact Audio Copy V1.0 beta 3 from 29. August 2011
EAC extraction logfile from 7. July 2014, 12:40
Tony Oxley & The B.I.M.P. Quartet / Floating Phantoms
Used drive : PIONEER DVD-RW DVR-115D Adapter: 0 ID: 0
Read mode : Secure
Utilize accurate stream : Yes
Defeat audio cache : Yes
Make use of C2 pointers : No
Read offset correction : 48
Overread into Lead-In and Lead-Out : No
Fill up missing offset samples with silence : Yes
Delete leading and trailing silent blocks : No
Null samples used in CRC calculations : Yes
Used interface : Installed external ASPI interface
Gap handling : Appended to previous track
Used output format : User Defined Encoder
Selected bitrate : 896 kBit/s
Quality : High
Add ID3 tag : No
Command line compressor : C:\Program Files\Exact Audio Copy\FLAC\FLAC.EXE
Additional command line options : -6 -V -T "ARTIST=%artist%" -T "TITLE=%title%" -T "ALBUM=%albumtitle%" -T "DATE=%year%" -T "TRACKNUMBER=%tracknr%" -T "GENRE=%genre%" -T "COMMENT=%comment%" -T "BAND=%albuminterpret%" -T "COMPOSER=%composer%" %haslyrics%--tag-from-file=LYRICS="%lyricsfile%"%haslyrics% -T "DISCNUMBER=%cdnumber%" -T "TOTALDISCS=%totalcds%" -T "TOTALTRACKS=%numtracks%" %hascover%--picture="%coverfile%"%hascover% %source% -o %dest%
TOC of the extracted CD
Track | Start | Length | Start sector | End sector
---------------------------------------------------------
1 | 0:00.00 | 14:44.16 | 0 | 66315
2 | 14:44.16 | 9:06.58 | 66316 | 107323
3 | 23:50.74 | 4:14.06 | 107324 | 126379
4 | 28:05.05 | 24:40.31 | 126380 | 237410
5 | 52:45.36 | 11:26.19 | 237411 | 288879
Track 1
Filename D:\zzz\01 - Line In.wav
Pre-gap length 0:00:02.00
Peak level 98.8 %
Extraction speed 5.3 X
Track quality 100.0 %
Test CRC 36C03666
Copy CRC 36C03666
Accurately ripped (confidence 1) [9537AF0A] (AR v1)
Copy OK
Track 2
Filename D:\zzz\02 - Line Out.wav
Peak level 98.8 %
Extraction speed 6.0 X
Track quality 99.9 %
Test CRC DB463CA4
Copy CRC DB463CA4
Accurately ripped (confidence 1) [6A20DD3D] (AR v1)
Copy OK
Track 3
Filename D:\zzz\03 - On Line.wav
Peak level 98.8 %
Extraction speed 6.4 X
Track quality 100.0 %
Test CRC 6A93C04C
Copy CRC 6A93C04C
Accurately ripped (confidence 1) [B1D2A9EF] (AR v1)
Copy OK
Track 4
Filename D:\zzz\04 - Stream Line.wav
Peak level 98.8 %
Extraction speed 7.9 X
Track quality 99.9 %
Test CRC E511FE3E
Copy CRC E511FE3E
Accurately ripped (confidence 1) [48889C0F] (AR v1)
Copy OK
Track 5
Filename D:\zzz\05 - Beam Line.wav
Peak level 98.8 %
Extraction speed 8.5 X
Track quality 99.9 %
Test CRC F03AA9F3
Copy CRC F03AA9F3
Accurately ripped (confidence 1) [5634579E] (AR v1)
Copy OK
All tracks accurately ripped
No errors occurred
End of status report
==== Log checksum 22BC6E4B87836B661043CF43891B3D5C0E69E10F97846E04CA54E0F8A3CFD893 ====
 
Содержание индексной карты (.CUE)
REM GENRE "Free Improvisation"
REM DATE 2002
REM DISCID 490F0B05
REM COMMENT "ExactAudioCopy v1.0b3"
PERFORMER "Tony Oxley & The B.I.M.P. Quartet"
TITLE "Floating Phantoms"
FILE "01 - Line In.wav" WAVE
TRACK 01 AUDIO
TITLE "Line In"
PERFORMER "Tony Oxley & The B.I.M.P. Quartet"
FLAGS DCP
INDEX 01 00:00:00
FILE "02 - Line Out.wav" WAVE
TRACK 02 AUDIO
TITLE "Line Out"
PERFORMER "Tony Oxley & The B.I.M.P. Quartet"
FLAGS DCP
INDEX 01 00:00:00
FILE "03 - On Line.wav" WAVE
TRACK 03 AUDIO
TITLE "On Line"
PERFORMER "Tony Oxley & The B.I.M.P. Quartet"
FLAGS DCP
INDEX 01 00:00:00
FILE "04 - Stream Line.wav" WAVE
TRACK 04 AUDIO
TITLE "Stream Line"
PERFORMER "Tony Oxley & The B.I.M.P. Quartet"
FLAGS DCP
INDEX 01 00:00:00
FILE "05 - Beam Line.wav" WAVE
TRACK 05 AUDIO
TITLE "Beam Line"
PERFORMER "Tony Oxley & The B.I.M.P. Quartet"
FLAGS DCP
INDEX 01 00:00:00
 
Лог проверки качества
d:\>d:\aucdtect -d/-m0 d:\zzz\*.wav
auCDtect: CD records authenticity detector, version 0.8.2
Copyright (c) 2004 Oleg Berngardt. All rights reserved.
Copyright (c) 2004 Alexander Djourik. All rights reserved.
------------------------------------------------------------
Processing file: [01. Line In.wav]
------------------------------------------------------------
This track looks like CDDA with probability 100%
------------------------------------------------------------
Processing file: [02. Line Out.wav]
------------------------------------------------------------
This track looks like CDDA with probability 100%
------------------------------------------------------------
Processing file: [03. On Line.wav]
------------------------------------------------------------
This track looks like CDDA with probability 100%
------------------------------------------------------------
Processing file: [04. Stream Line.wav]
------------------------------------------------------------
This track looks like CDDA with probability 100%
------------------------------------------------------------
Processing file: [05. Beam Line.wav]
------------------------------------------------------------
This track looks like CDDA with probability 100%
------------------------------------------------------------
Final Conclusion:
------------------------------------------------------------
These tracks looks like CDDA with probability 100%
Доп. информация:
 
Album Info & AMG Review
All compositions by Tony Oxley, Phil Wachsmann, Pat Thomas, Matt Wand
Recorded live on Nov 5, 1999 during the "Total Music Meeting" in Berlin
Produced by Tony Oxley and Jost Gebers (executive producer)
Liner notes: Bert Noglik
Translation: Isabel Seeberg / Paul Lytton
Painting: Tony Oxley, Score No. 4, gouache on paper, 64x74 cm
Photo: F.H. Busch
Photo (Tony Oxley) (C) Ingo Scheffler
Design: wppt:kommunikation, Wuppertal
Many would be tempted to emphasize the cross-generational lineup of Tony Oxley's B.I.M.P. Quartet, the drummer and Phil Wachsmann belonging to a different age scale than Pat Thomas and Matt Wand, but the real "unknown variable" here is the cross-stylistic element the latter represents. This sampler artist is best known for his work in the irreverent experimental electronica duo Stock, Hausen & Walkman. Free improv fans have a right to feel weary of this team-up, but one needs to remember Oxley's long-lasting love for live electronics, dating back to the 1970s (some recordings with Howard Riley and Barry Guy are quite "out there"). Wand manages to tone down his personality without annihilating it, and the fact that both violinist and keyboardist also use electronics draws the sampler's voice deeper into the group's sound. In short, a true effort is being made to incorporate Wand into the group. Nevertheless, the most exciting moment arises when Thomas explodes all over the piano, dragging a feverish Wachsmann and Oxley along with him for the finale of "Stream Line." The odd sampled voices bring a nice touch in "On Line" and in general the group displays enough synergy and textural interplay to make Floating Phantoms a worthy record, but it fails to establish Wand as a strong improviser. Still recommended, if only for the crystal-clear recording of the percussionist's every bang and clang. The performance was recorded live at the 1999 Total Music Meeting and is the first release on FMP's subsidiary, a/l/l.
 
Состав
Tony Oxley: percussion
Phil Wachsmann: violin, electronics
Pat Thomas: piano, keyboards, electronics
Matt Wand: sampling
По всем вопросам пишите личное сообщение пользователю M0p94ok.
04:17
234
Нет комментариев. Ваш будет первым!