Поиск

(Avant-Garde Jazz, Free Improvisation, British Jazz) [CD] VA (Bark!, Eddie Prevost, Particles, John Tilbury, Evan Parker, John Edwards, Ross Lambert etc.) - Freedom Of The City (Seventh Of May 2001) (2CD) - 2002, FLAC (tracks+.cue), lossless

(Avant-Garde Jazz, Free Improvisation, British Jazz) [CD] VA (Bark!, Eddie Prevost, Particles, John Tilbury, Evan Parker, John Edwards, Ross Lambert etc.) - Freedom Of The City (Seventh Of May 2001) (2CD) - 2002, FLAC (tracks+.cue), lossless
Треклист:
Various Artists / Freedom Of The City (Seventh Of May 2001) (2CD)
Жанр: Avant-Garde Jazz, Free Improvisation, British Jazz
Носитель: CD
Страна-производитель диска: UK
Год издания: 2002
Издатель (лейбл): Matchless Recordings
Номер по каталогу: MRCD47
Страна: UK
Аудиокодек: FLAC (*.flac)
Тип рипа: tracks+.cue
Битрейт аудио: lossless
Продолжительность: 65:00 + 77:24
Источник (релизер): свой фирменный диск
Наличие сканов в содержимом раздачи:
Треклист:
 
CD1
The Afternoon
1. Bark! - @ 2.30pm (3 Parts) 24:38
2. Eddie Prevost - solo @ 3.15pm 19:19
3. Charaoui / Lely / Wright - @3.45pm 21:02
 
CD2
The Evening
1. Eddie Prevost Trio - @ 7.30pm 35:23
2. Particles - @ 8.15pm 17:06
3. Wadych and Dubovtsev - @8.45pm 4:52
4. Tilbury and Parker - @9.15pm 20:03
 
Лог создания рипа
 
CD1
Exact Audio Copy V1.0 beta 3 from 29. August 2011
EAC extraction logfile from 6. July 2014, 17:37
Various Artists / Freedom Of The City (Seventh Of May 2001) CD1
Used drive : PIONEER DVD-RW DVR-115D Adapter: 0 ID: 0
Read mode : Secure
Utilize accurate stream : Yes
Defeat audio cache : Yes
Make use of C2 pointers : No
Read offset correction : 48
Overread into Lead-In and Lead-Out : No
Fill up missing offset samples with silence : Yes
Delete leading and trailing silent blocks : No
Null samples used in CRC calculations : Yes
Used interface : Installed external ASPI interface
Gap handling : Appended to previous track
Used output format : User Defined Encoder
Selected bitrate : 896 kBit/s
Quality : High
Add ID3 tag : No
Command line compressor : C:\Program Files\Exact Audio Copy\FLAC\FLAC.EXE
Additional command line options : -6 -V -T "ARTIST=%artist%" -T "TITLE=%title%" -T "ALBUM=%albumtitle%" -T "DATE=%year%" -T "TRACKNUMBER=%tracknr%" -T "GENRE=%genre%" -T "COMMENT=%comment%" -T "BAND=%albuminterpret%" -T "COMPOSER=%composer%" %haslyrics%--tag-from-file=LYRICS="%lyricsfile%"%haslyrics% -T "DISCNUMBER=%cdnumber%" -T "TOTALDISCS=%totalcds%" -T "TOTALTRACKS=%numtracks%" %hascover%--picture="%coverfile%"%hascover% %source% -o %dest%
TOC of the extracted CD
Track | Start | Length | Start sector | End sector
---------------------------------------------------------
1 | 0:00.00 | 24:38.40 | 0 | 110889
2 | 24:38.40 | 19:19.24 | 110890 | 197838
3 | 43:57.64 | 21:02.11 | 197839 | 292499
Track 1
Filename D:\zzz\01 - @2.30pm (3 Parts).wav
Pre-gap length 0:00:02.00
Peak level 92.2 %
Extraction speed 6.2 X
Track quality 100.0 %
Test CRC B6A2E4FB
Copy CRC B6A2E4FB
Track not present in AccurateRip database
Copy OK
Track 2
Filename D:\zzz\02 - @3.15pm.wav
Peak level 81.5 %
Extraction speed 7.8 X
Track quality 99.9 %
Test CRC C562B4B3
Copy CRC C562B4B3
Track not present in AccurateRip database
Copy OK
Track 3
Filename D:\zzz\03 - @3.45pm.wav
Peak level 100.0 %
Extraction speed 9.3 X
Track quality 100.0 %
Test CRC 91FEE70C
Copy CRC 91FEE70C
Track not present in AccurateRip database
Copy OK
None of the tracks are present in the AccurateRip database
No errors occurred
End of status report
==== Log checksum BD20E203236FF5F729FFC61C06B9A10A2ADB23596349314D8FF89DFA3358974C ====
 
CD2
Exact Audio Copy V1.0 beta 3 from 29. August 2011
EAC extraction logfile from 6. July 2014, 21:22
Various Artists / Freedom Of The City (Seventh Of May 2001) CD2
Used drive : PIONEER DVD-RW DVR-115D Adapter: 0 ID: 0
Read mode : Secure
Utilize accurate stream : Yes
Defeat audio cache : Yes
Make use of C2 pointers : No
Read offset correction : 48
Overread into Lead-In and Lead-Out : No
Fill up missing offset samples with silence : Yes
Delete leading and trailing silent blocks : No
Null samples used in CRC calculations : Yes
Used interface : Installed external ASPI interface
Gap handling : Appended to previous track
Used output format : User Defined Encoder
Selected bitrate : 896 kBit/s
Quality : High
Add ID3 tag : No
Command line compressor : C:\Program Files\Exact Audio Copy\FLAC\FLAC.EXE
Additional command line options : -6 -V -T "ARTIST=%artist%" -T "TITLE=%title%" -T "ALBUM=%albumtitle%" -T "DATE=%year%" -T "TRACKNUMBER=%tracknr%" -T "GENRE=%genre%" -T "COMMENT=%comment%" -T "BAND=%albuminterpret%" -T "COMPOSER=%composer%" %haslyrics%--tag-from-file=LYRICS="%lyricsfile%"%haslyrics% -T "DISCNUMBER=%cdnumber%" -T "TOTALDISCS=%totalcds%" -T "TOTALTRACKS=%numtracks%" %hascover%--picture="%coverfile%"%hascover% %source% -o %dest%
TOC of the extracted CD
Track | Start | Length | Start sector | End sector
---------------------------------------------------------
1 | 0:00.00 | 35:21.33 | 0 | 159107
2 | 35:21.33 | 17:06.47 | 159108 | 236104
3 | 52:28.05 | 4:52.70 | 236105 | 258074
4 | 57:21.00 | 20:03.22 | 258075 | 348321
Track 1
Filename D:\zzz\01 - @ 7.30pm.wav
Pre-gap length 0:00:02.00
Peak level 100.0 %
Extraction speed 6.6 X
Track quality 99.9 %
Test CRC 9478FCE0
Copy CRC 9478FCE0
Track not present in AccurateRip database
Copy OK
Track 2
Filename D:\zzz\02 - @ 8.15pm.wav
Peak level 100.0 %
Extraction speed 8.5 X
Track quality 100.0 %
Test CRC E6935082
Copy CRC E6935082
Track not present in AccurateRip database
Copy OK
Track 3
Filename D:\zzz\03 - @ 8.45pm.wav
Peak level 73.2 %
Extraction speed 8.4 X
Track quality 100.0 %
Test CRC 2545766F
Copy CRC 2545766F
Track not present in AccurateRip database
Copy OK
Track 4
Filename D:\zzz\04 - @ 9.15pm.wav
Peak level 73.6 %
Extraction speed 9.8 X
Track quality 100.0 %
Test CRC 8A7C9B57
Copy CRC 8A7C9B57
Track not present in AccurateRip database
Copy OK
None of the tracks are present in the AccurateRip database
No errors occurred
End of status report
==== Log checksum F15B5C12DDDAFAFF7C3F082D942AAFE882A0FEF45910D7A63A423B8E0807956A ====
 
Содержание индексной карты (.CUE)
 
CD1
REM GENRE "Free Improvisation"
REM DATE 2002
REM DISCID 230F3C03
REM COMMENT "ExactAudioCopy v1.0b3"
PERFORMER "Various Artists"
TITLE "Freedom Of The City (Seventh Of May 2001) CD1"
FILE "01 - @2.30pm (3 Parts).wav" WAVE
TRACK 01 AUDIO
TITLE "@2.30pm (3 Parts)"
PERFORMER "Bark!"
INDEX 01 00:00:00
FILE "02 - @3.15pm.wav" WAVE
TRACK 02 AUDIO
TITLE "@3.15pm"
PERFORMER "Eddie Prevost"
INDEX 01 00:00:00
FILE "03 - @3.45pm.wav" WAVE
TRACK 03 AUDIO
TITLE "@3.45pm"
PERFORMER "Yann Charaoui, John Lely, Seymour Wright"
INDEX 01 00:00:00
 
CD2
REM GENRE "Free Improvisation"
REM DATE 2002
REM DISCID 21122404
REM COMMENT "ExactAudioCopy v1.0b3"
PERFORMER "Various Artists"
TITLE "Freedom Of The City (Seventh Of May 2001) CD2"
FILE "01 - @ 7.30pm.wav" WAVE
TRACK 01 AUDIO
TITLE "@ 7.30pm"
PERFORMER "Eddie Prevost Trio"
INDEX 01 00:00:00
FILE "02 - @ 8.15pm.wav" WAVE
TRACK 02 AUDIO
TITLE "@ 8.15pm"
PERFORMER "Particles"
INDEX 01 00:00:00
FILE "03 - @ 8.45pm.wav" WAVE
TRACK 03 AUDIO
TITLE "@ 8.45pm"
PERFORMER "Romuald Wadych & Denis Dubovtsev"
INDEX 01 00:00:00
FILE "04 - @ 9.15pm.wav" WAVE
TRACK 04 AUDIO
TITLE "@ 9.15pm"
PERFORMER "John Tilbury & Evan Parker"
INDEX 01 00:00:00
 
Лог проверки качества
d:\>d:\aucdtect -d/-m0 d:\zzz\*.wav
auCDtect: CD records authenticity detector, version 0.8.2
Copyright (c) 2004 Oleg Berngardt. All rights reserved.
Copyright (c) 2004 Alexander Djourik. All rights reserved.
------------------------------------------------------------
Processing file: [01. @ 7.30pm.wav]
------------------------------------------------------------
This track looks like CDDA with probability 100%
------------------------------------------------------------
Processing file: [01. @2.30pm (3 Parts).wav]
------------------------------------------------------------
This track looks like CDDA with probability 100%
------------------------------------------------------------
Processing file: [02. @ 8.15pm.wav]
------------------------------------------------------------
This track looks like CDDA with probability 100%
------------------------------------------------------------
Processing file: [02. @3.15pm.wav]
------------------------------------------------------------
This track looks like CDDA with probability 99%
------------------------------------------------------------
Processing file: [03. @ 8.45pm.wav]
------------------------------------------------------------
This track looks like CDDA with probability 100%
------------------------------------------------------------
Processing file: [03. @3.45pm.wav]
------------------------------------------------------------
This track looks like CDDA with probability 100%
------------------------------------------------------------
Processing file: [04. @ 9.15pm.wav]
------------------------------------------------------------
This track looks like CDDA with probability 49%
------------------------------------------------------------
Final Conclusion:
------------------------------------------------------------
These tracks looks like CDDA with probability 100%
Доп. информация:
 
Album Info
Recorded at Freedom Of The City Festival at The Conway Hall, London, England on 7th May 2001
The recordings were made by Paul Brogen for Jazz On 3.
Thanks to BBC Radio 3 for supporting the festival and to Steve Shepherd at Jazz On 3 for bringing Radio 3 and BBC On-line to the event.
Front cover: 'untitled installation' (C) Tim Goldie photograph Stephen Elcocks
Notes (C) Philippe Alen. Edited version of review which first appeared in Improjazz No. 77 July/August 2001
English translation Caroline Kraabel
 
Состав
Rex Casswell: electric guitar (1.1)
Phillip Marks: drums (1.1)
Paul Obermayer: electronics (1.1)
Eddie Prevost: solo percussion (1.2), drums (2.1)
Yann Charaoui: snare drum and vocals (1.3)
John Lely: piano and electronics (1.3)
Seymour Wright: alto saxophone (1.3)
Tom Chant: soprano saxophone (2.1)
John Edwards: double bass (2.1)
Romuald Wadych: bass guitar and effects (2.2), bass guitar (2.3)
Sandy Kindness: tenor saxophone (2.2)
Tim Goldie: drums (2.2)
Ross Lambert: electric guitar (2.2)
Denis Dubovtsev: soprano saxophone (2.3)
John Tilbury: piano (2.4)
Evan Parker: tenor saxophone (2.4)
По всем вопросам пишите личное сообщение пользователю M0p94ok.
04:17
184
Нет комментариев. Ваш будет первым!