Вы используете незарегистрированную версию компонента "Вкладки"!

Поиск

(Free Improvisation, Electroacoustic, Creative Sources) [CD] Pedro Chambel - Anamnesis - 2002, FLAC (tracks+.cue), lossless

Треклист:
Pedro Chambel / Anamnesis
Жанр: Free Improvisation, Electroacoustic, Creative Sources
Носитель: CD
Страна-производитель диска: Portugal
Год издания: 2002
Издатель (лейбл): Creative Sources
Номер по каталогу: cs 004 cd
Страна: Portugal
Аудиокодек: FLAC (*.flac)
Тип рипа: tracks+.cue
Битрейт аудио: lossless
Продолжительность: 41:10
Источник (релизер): свой фирменный диск
Наличие сканов в содержимом раздачи:
Треклист:
1. Anamnesis I
2. Anamnesis II
3. Anamnesis III
4. Anamnesis IV
 
Лог создания рипа
Exact Audio Copy V1.0 beta 3 from 29. August 2011
EAC extraction logfile from 6. July 2014, 12:42
Pedro Chambel / Anamnesis
Used drive : PIONEER DVD-RW DVR-115D Adapter: 0 ID: 0
Read mode : Secure
Utilize accurate stream : Yes
Defeat audio cache : Yes
Make use of C2 pointers : No
Read offset correction : 48
Overread into Lead-In and Lead-Out : No
Fill up missing offset samples with silence : Yes
Delete leading and trailing silent blocks : No
Null samples used in CRC calculations : Yes
Used interface : Installed external ASPI interface
Gap handling : Appended to previous track
Used output format : User Defined Encoder
Selected bitrate : 896 kBit/s
Quality : High
Add ID3 tag : No
Command line compressor : C:\Program Files\Exact Audio Copy\FLAC\FLAC.EXE
Additional command line options : -6 -V -T "ARTIST=%artist%" -T "TITLE=%title%" -T "ALBUM=%albumtitle%" -T "DATE=%year%" -T "TRACKNUMBER=%tracknr%" -T "GENRE=%genre%" -T "COMMENT=%comment%" -T "BAND=%albuminterpret%" -T "COMPOSER=%composer%" %haslyrics%--tag-from-file=LYRICS="%lyricsfile%"%haslyrics% -T "DISCNUMBER=%cdnumber%" -T "TOTALDISCS=%totalcds%" -T "TOTALTRACKS=%numtracks%" %hascover%--picture="%coverfile%"%hascover% %source% -o %dest%
TOC of the extracted CD
Track | Start | Length | Start sector | End sector
---------------------------------------------------------
1 | 0:00.00 | 14:15.73 | 0 | 64197
2 | 14:15.73 | 8:17.54 | 64198 | 101526
3 | 22:33.52 | 8:31.17 | 101527 | 139868
4 | 31:04.69 | 10:05.58 | 139869 | 185301
Track 1
Filename D:\zzz\01 - Anamnesis I.wav
Pre-gap length 0:00:02.00
Peak level 39.2 %
Extraction speed 4.3 X
Track quality 99.9 %
Test CRC 99E43753
Copy CRC 99E43753
Track not present in AccurateRip database
Copy OK
Track 2
Filename D:\zzz\02 - Anamnesis II.wav
Peak level 91.4 %
Extraction speed 6.3 X
Track quality 100.0 %
Test CRC CB16C108
Copy CRC CB16C108
Track not present in AccurateRip database
Copy OK
Track 3
Filename D:\zzz\03 - Anamnesis III.wav
Peak level 70.7 %
Extraction speed 7.0 X
Track quality 100.0 %
Test CRC 82739980
Copy CRC 82739980
Track not present in AccurateRip database
Copy OK
Track 4
Filename D:\zzz\04 - Anamnesis IV.wav
Peak level 50.6 %
Extraction speed 7.6 X
Track quality 100.0 %
Test CRC 49DF1A50
Copy CRC 49DF1A50
Track not present in AccurateRip database
Copy OK
None of the tracks are present in the AccurateRip database
No errors occurred
End of status report
==== Log checksum 47F515249AC8EDF3B32A29135137776484486EEF3392C844BF117365D3A0E5F1 ====
 
Содержание индексной карты (.CUE)
REM GENRE "Free Improvisation"
REM DATE 2002
REM DISCID 3909A604
REM COMMENT "ExactAudioCopy v1.0b3"
PERFORMER "Pedro Chambel"
TITLE "Anamnesis"
FILE "01 - Anamnesis I.wav" WAVE
TRACK 01 AUDIO
TITLE "Anamnesis I"
PERFORMER "Pedro Chambel"
INDEX 01 00:00:00
FILE "02 - Anamnesis II.wav" WAVE
TRACK 02 AUDIO
TITLE "Anamnesis II"
PERFORMER "Pedro Chambel"
INDEX 01 00:00:00
FILE "03 - Anamnesis III.wav" WAVE
TRACK 03 AUDIO
TITLE "Anamnesis III"
PERFORMER "Pedro Chambel"
INDEX 01 00:00:00
FILE "04 - Anamnesis IV.wav" WAVE
TRACK 04 AUDIO
TITLE "Anamnesis IV"
PERFORMER "Pedro Chambel"
INDEX 01 00:00:00
 
Лог проверки качества
d:\>d:\aucdtect -d/-m0 d:\zzz\*.wav
auCDtect: CD records authenticity detector, version 0.8.2
Copyright (c) 2004 Oleg Berngardt. All rights reserved.
Copyright (c) 2004 Alexander Djourik. All rights reserved.
------------------------------------------------------------
Processing file: [01. Anamnesis I.wav]
------------------------------------------------------------
This track looks like CDDA with probability 100%
------------------------------------------------------------
Processing file: [02. Anamnesis II.wav]
------------------------------------------------------------
This track looks like CDDA with probability 100%
------------------------------------------------------------
Processing file: [03. Anamnesis III.wav]
------------------------------------------------------------
This track looks like CDDA with probability 100%
------------------------------------------------------------
Processing file: [04. Anamnesis IV.wav]
------------------------------------------------------------
This track looks like MPEG with probability 100%
------------------------------------------------------------
Final Conclusion:
------------------------------------------------------------
Could not qualify the source of these tracks.
Доп. информация:
 
Album Info & AMG Review
Recorded in real-time by Pedro Chambel 28.11.01 in Lisbon
Photos: Carlos Paixao
Design: Carlos Santos
Text translation: Lino Neves
Master: Ernesto Rodrigues and Carlos Santos
Production: Ernesto Rodrigues
Thanks to Ernesto Rodrigues, Carlos Paixao and Mark Wastell
Liner notes: Jose Oliveira
Anamnesis is Pedro Chambel's first solo album. A Portuguese guitarist unknown outside of his home country, Chambel comes forth with an artistic proposition that parallels those of Keith Rowe, Martin Siewert, and the like. His music relies on silence, the electrical drone of a "naked" amplifier, and the use of unusual guitar playing techniques to squeeze delicate noise textures out of the instrument. Severely reductionist in its means, this music requires from the listener a leap of faith: Ignore your first impressions of sonic poverty and stillness and just listen as Chambel unfolds the mysteries he has encountered. The guitar as an instrument doesn't hold any importance anymore -- these crackles, drones, and indescribable noises could have a number of origins. That is particularly true of "Anamnesis IV," where what sounds like basic white noise is sampled and processed in real time. On the other hand, "Anamnesis I" starts with a few distinguishable guitar notes, all very quiet and moving into even quieter realms. Whether the music works for you or not depends mostly on your state of mind. Granted, Chambel doesn't make it easy for the listener, and truth be told his music lacks a bit of soul (even when compared to Rowe, Burkhard Stangl, or even Taku Sugimoto). Nevertheless, Anamnesis makes for an intriguing listen that electro-acoustic improv enthusiasts will want to check out.
 
Состав
Pedro Chambel: guitar
По всем вопросам пишите личное сообщение пользователю M0p94ok.
04:16
145
Нет комментариев. Ваш будет первым!