Вы используете незарегистрированную версию компонента "Вкладки"!

Поиск

(Free Improvisation, Avant-Garde, Creative Sources) [CD] Ernesto Rodrigues, Antonio Chaparreiro, Jose Oliveira - Sudden Music - 2001, FLAC (tracks+.cue), lossless

(Free Improvisation, Avant-Garde, Creative Sources) [CD] Ernesto Rodrigues, Antonio Chaparreiro, Jose Oliveira - Sudden Music - 2001, FLAC (tracks+.cue), lossless
Треклист:
Ernesto Rodrigues, Antonio Chaparreiro, Jose Oliveira / Sudden Music
Жанр: Free Improvisation, Avant-Garde, Creative Sources
Носитель: CD
Страна-производитель диска: Portugal
Год издания: 2001
Издатель (лейбл): Creative Sources
Номер по каталогу: cs 002 cd
Страна: Portugal
Аудиокодек: FLAC (*.flac)
Тип рипа: tracks+.cue
Битрейт аудио: lossless
Продолжительность: 70:26
Источник (релизер): свой фирменный диск
Наличие сканов в содержимом раздачи:
Треклист:
1. Round Angles And Sharp Lines
2. Something Is Going To Happen
3. Lateral Thinking
4. Landscape With Persons And Furniture
 
Лог создания рипа
Exact Audio Copy V1.0 beta 3 from 29. August 2011
EAC extraction logfile from 5. July 2014, 8:25
Ernesto Rodrigues, Antonio Chaparreiro & Jose Oliveira / Sudden Music
Used drive : PIONEER DVD-RW DVR-115D Adapter: 0 ID: 0
Read mode : Secure
Utilize accurate stream : Yes
Defeat audio cache : Yes
Make use of C2 pointers : No
Read offset correction : 48
Overread into Lead-In and Lead-Out : No
Fill up missing offset samples with silence : Yes
Delete leading and trailing silent blocks : No
Null samples used in CRC calculations : Yes
Used interface : Installed external ASPI interface
Gap handling : Appended to previous track
Used output format : User Defined Encoder
Selected bitrate : 896 kBit/s
Quality : High
Add ID3 tag : No
Command line compressor : C:\Program Files\Exact Audio Copy\FLAC\FLAC.EXE
Additional command line options : -6 -V -T "ARTIST=%artist%" -T "TITLE=%title%" -T "ALBUM=%albumtitle%" -T "DATE=%year%" -T "TRACKNUMBER=%tracknr%" -T "GENRE=%genre%" -T "COMMENT=%comment%" -T "BAND=%albuminterpret%" -T "COMPOSER=%composer%" %haslyrics%--tag-from-file=LYRICS="%lyricsfile%"%haslyrics% -T "DISCNUMBER=%cdnumber%" -T "TOTALDISCS=%totalcds%" -T "TOTALTRACKS=%numtracks%" %hascover%--picture="%coverfile%"%hascover% %source% -o %dest%
TOC of the extracted CD
Track | Start | Length | Start sector | End sector
---------------------------------------------------------
1 | 0:01.00 | 16:46.20 | 75 | 75544
2 | 16:47.20 | 19:03.61 | 75545 | 161330
3 | 35:51.06 | 20:17.22 | 161331 | 252627
4 | 56:08.28 | 14:19.03 | 252628 | 317055
Track 1
Filename D:\zzz\01 - Round Angles And Sharp Lines.wav
Pre-gap length 0:00:03.00
Peak level 95.9 %
Extraction speed 5.3 X
Track quality 99.9 %
Test CRC 3DD69746
Copy CRC 3DD69746
Track not present in AccurateRip database
Copy OK
Track 2
Filename D:\zzz\02 - Something Is Going To Happen.wav
Pre-gap length 0:00:09.73
Peak level 69.7 %
Extraction speed 7.0 X
Track quality 100.0 %
Test CRC 3D6077F1
Copy CRC 3D6077F1
Track not present in AccurateRip database
Copy OK
Track 3
Filename D:\zzz\03 - Lateral Thinking.wav
Pre-gap length 0:00:09.73
Peak level 58.3 %
Extraction speed 8.3 X
Track quality 100.0 %
Test CRC B98AFC99
Copy CRC B98AFC99
Track not present in AccurateRip database
Copy OK
Track 4
Filename D:\zzz\04 - Landscape With Persons And Furniture.wav
Pre-gap length 0:00:09.73
Peak level 98.8 %
Extraction speed 9.1 X
Track quality 100.0 %
Test CRC 3BCBC0A1
Copy CRC 3BCBC0A1
Track not present in AccurateRip database
Copy OK
None of the tracks are present in the AccurateRip database
No errors occurred
End of status report
==== Log checksum 6EB69F635D55B1EBE2BA928ACA51C4F55523FF9CADE8860254D9D5E04A0D63CD ====
 
Содержание индексной карты (.CUE)
REM GENRE "Free Improvisation"
REM DATE 2001
REM DISCID 25108204
REM COMMENT "ExactAudioCopy v1.0b3"
PERFORMER "Ernesto Rodrigues, Antonio Chaparreiro & Jose Oliveira"
TITLE "Sudden Music"
FILE "01 - Round Angles And Sharp Lines.wav" WAVE
TRACK 01 AUDIO
TITLE "Round Angles And Sharp Lines"
PERFORMER "Ernesto Rodrigues, Antonio Chaparreiro & Jose Oliveira"
PREGAP 00:01:00
INDEX 01 00:00:00
TRACK 02 AUDIO
TITLE "Something Is Going To Happen"
PERFORMER "Ernesto Rodrigues, Antonio Chaparreiro & Jose Oliveira"
INDEX 00 16:36:22
FILE "02 - Something Is Going To Happen.wav" WAVE
INDEX 01 00:00:00
TRACK 03 AUDIO
TITLE "Lateral Thinking"
PERFORMER "Ernesto Rodrigues, Antonio Chaparreiro & Jose Oliveira"
INDEX 00 18:53:63
FILE "03 - Lateral Thinking.wav" WAVE
INDEX 01 00:00:00
TRACK 04 AUDIO
TITLE "Landscape With Persons And Furniture"
PERFORMER "Ernesto Rodrigues, Antonio Chaparreiro & Jose Oliveira"
INDEX 00 20:07:24
FILE "04 - Landscape With Persons And Furniture.wav" WAVE
INDEX 01 00:00:00
 
Лог проверки качества
d:\>d:\aucdtect -d/-m0 d:\zzz\*.wav
auCDtect: CD records authenticity detector, version 0.8.2
Copyright (c) 2004 Oleg Berngardt. All rights reserved.
Copyright (c) 2004 Alexander Djourik. All rights reserved.
------------------------------------------------------------
Processing file: [01. Round Angles And Sharp Lines.wav]
------------------------------------------------------------
This track looks like CDDA with probability 100%
------------------------------------------------------------
Processing file: [02. Something Is Going To Happen.wav]
------------------------------------------------------------
This track looks like CDDA with probability 100%
------------------------------------------------------------
Processing file: [03. Lateral Thinking.wav]
------------------------------------------------------------
This track looks like CDDA with probability 100%
------------------------------------------------------------
Processing file: [04. Landscape With Persons And Furniture.wav]
------------------------------------------------------------
This track looks like CDDA with probability 100%
------------------------------------------------------------
Final Conclusion:
------------------------------------------------------------
These tracks looks like CDDA with probability 100%
Доп. информация:
 
Album Info & AMG Review
All tracks composed by Ernesto Rodrigues, Antonio Chaparreiro, Jose Oliveira
CD title and track names suggested by Rui Eduardo Paes
Design Carlos Santos
Text translation Joaquim Nunes Paes
Recorded by Jose Vasco at Tcha Tcha Tcha Studio in 09/12/2001
Production Ernesto Rodrigues
Liner notes: Rui Eduardo Paes
For his second CD on his own record label, violinist Ernesto Rodrigues chose to release a session that complements his debut, Multiples, while hinting at a different direction. Where that one focused on very short pieces, Sudden Music presents four long improvisations, 15 to 20 minutes each. If John Stevens previously represented the main inspiration, this time around Rodrigues, percussionist José Oliveira, and guitarist António Chaparreiro turn their ears to the musicians associated with the lowercase, onkyo, and reductionist trends. The music strongly relies on silence (think Radu Malfatti and Taku Sugimoto), microscopic textures (Axel Dörner), and an attempt at stripping away any gestures that can signal the individuality of an instrument or its player in order to reach a group sound that would be impossible to fraction into its constituents. Rodrigues shifts between violin and viola, exploring the possibilities of slow bow movements while applying a lot of pressure on the strings. Chaparreiro's "clean" electric guitar often remains inaudible, his playing so quiet it can be mistaken for either violin or percussion. Oliveira uses lots of small objects, bells, and bouncing balls to great effect, producing (surprisingly) the most "musical" effects. This kind of music holds together only if a proper tension is maintained, the kind that keeps the listener on the edge of his or her seat in expectation for the next sound. In this regard, Sudden Music is only a half-success. "Round Angles and Sharp Lines" matches the subdued intensity of the best pieces in that field, but "Lateral Thinking" only manages to sound like three guys desperately trying to find something to do without making a sound. The other two pieces are good, especially "Landscape With Persons and Furniture," where Rodrigues signals a couple of welcomed changes of pace.
 
Состав
Ernesto Rodrigues: violin, viola
Antonio Chaparreiro: electric guitar
Jose Oliveira: percussion, inside piano
По всем вопросам пишите личное сообщение пользователю M0p94ok.
04:15
138
Нет комментариев. Ваш будет первым!