Вы используете незарегистрированную версию компонента "Вкладки"!

Поиск

(Free Jazz, Free Improvisation ) [cd] Peter Brotzmann, Juhani Aaltonen, Peter Kowald, Edward Vesala ‎– Hot Lotta , FLAC (tracks+.cue), lossless

(Free Jazz, Free Improvisation ) [cd] Peter Brotzmann, Juhani Aaltonen, Peter Kowald, Edward Vesala ‎– Hot Lotta , FLAC (tracks+.cue), lossless
Треклист:
(Free Jazz, Free Improvisation ) [cd] Peter Brotzmann, Juhani Aaltonen, Peter Kowald, Edward Vesala ‎– Hot Lotta , FLAC (tracks+.cue), lossless


Peter Brotzmann, Juhani Aaltonen, Peter Kowald, Edward Vesala
Hot Lotta
Жанр: Free Jazz, Free Improvisation
Год выпуска: 1973
Издатель (лейбл):2011, Rocket Records / ROK-071
Формат: FLAC (tracks+.cue)
Битрейт аудио: lossless
Продолжительность 46`44
Источник: what.cd, m0thra

tracks

1 After Pam Pam 14:15
2 For Deep Deep Finnish Forest Cymbal Govenor 2:43
3 Kippis 6:06
4 Hot Lotta 23:23


 
.log
Exact Audio Copy V1.0 beta 3 from 29. August 2011
EAC extraction logfile from 18. January 2013, 20:09
Peter Brötzmann, Juhani Aaltonen, Peter Kowald, Edward Vesala / Hot Lotta
Used drive : ASUS DRW-24B5ST Adapter: 0 ID: 0
Read mode : Secure
Utilize accurate stream : Yes
Defeat audio cache : Yes
Make use of C2 pointers : No
Read offset correction : 6
Overread into Lead-In and Lead-Out : No
Fill up missing offset samples with silence : Yes
Delete leading and trailing silent blocks : No
Null samples used in CRC calculations : Yes
Used interface : Native Win32 interface for Win NT & 2000
Gap handling : Appended to previous track
Used output format : User Defined Encoder
Selected bitrate : 1024 kBit/s
Quality : High
Add ID3 tag : No
Command line compressor : C:\Program Files (x86)\Exact Audio Copy\Flac\flac.exe
Additional command line options : -8 -V -T "ARTIST=%artist%" -T "TITLE=%title%" -T "ALBUM=%albumtitle%" -T "DATE=%year%" -T "TRACKNUMBER=%tracknr%" -T "GENRE=%genre%" -T "PERFORMER=%albuminterpret%" -T "COMPOSER=%composer%" %haslyrics%--tag-from-file=LYRICS="%lyricsfile%"%haslyrics% -T "ALBUMARTIST=%albumartist%" -T "DISCNUMBER=%cdnumber%" -T "TOTALDISCS=%totalcds%" -T "TOTALTRACKS=%numtracks%" -T "COMMENT=%comment%" %source% -o %dest%
TOC of the extracted CD
Track | Start | Length | Start sector | End sector
---------------------------------------------------------
1 | 0:00.00 | 14:22.27 | 0 | 64676
2 | 14:22.27 | 2:49.70 | 64677 | 77421
3 | 17:12.22 | 6:08.25 | 77422 | 105046
4 | 23:20.47 | 23:23.16 | 105047 | 210287
Track 1
Filename C:\Hot Lotta\01 After Pam Pam.wav
Pre-gap length 0:00:02.00
Peak level 97.7 %
Extraction speed 6.4 X
Track quality 100.0 %
Test CRC 2F898381
Copy CRC 2F898381
Track not present in AccurateRip database
Copy OK
Track 2
Filename C:\Hot Lotta\02 For Deep Deep Finnish Forest Cymbal Govenor.wav
Pre-gap length 0:00:06.73
Peak level 97.7 %
Extraction speed 6.4 X
Track quality 100.0 %
Test CRC 9F4D2E72
Copy CRC 9F4D2E72
Track not present in AccurateRip database
Copy OK
Track 3
Filename C:\Hot Lotta\03 Kippis.wav
Pre-gap length 0:00:06.26
Peak level 97.7 %
Extraction speed 7.5 X
Track quality 100.0 %
Test CRC 7171007B
Copy CRC 7171007B
Track not present in AccurateRip database
Copy OK
Track 4
Filename C:\Hot Lotta\04 Hot Lotta.wav
Pre-gap length 0:00:02.24
Peak level 97.7 %
Extraction speed 9.4 X
Track quality 100.0 %
Test CRC 78317C37
Copy CRC 78317C37
Track not present in AccurateRip database
Copy OK
None of the tracks are present in the AccurateRip database
No errors occurred
End of status report
---- CUETools DB Plugin V2.1.3
[CTDB TOCID: ag2lkmaAeonqHb2HTMlvM0XHnvo-] disk not present in database, Submit result: ag2lkmaAeonqHb2HTMlvM0XHnvo- has been uploaded
==== Log checksum 30E9A4300029BF4D8592DC0B2C550326A65BB3CB6FAC43912F10B6CDA634DEC8 ====
 
.cue
REM GENRE Jazz
REM DATE 1973
REM DISCID 230AF304
REM COMMENT "ExactAudioCopy v1.0b3"
PERFORMER "Peter Brotzmann, Juhani Aaltonen, Peter Kowald, Edward Vesala"
TITLE "Hot Lotta"
FILE "01 After Pam Pam.wav" WAVE
TRACK 01 AUDIO
TITLE "After Pam Pam"
PERFORMER "Peter Brotzmann, Juhani Aaltonen, Peter Kowald, Edward Vesala"
INDEX 01 00:00:00
TRACK 02 AUDIO
TITLE "For Deep Deep Finnish Forest Cymbal Govenor"
PERFORMER "Peter Brotzmann, Juhani Aaltonen, Peter Kowald, Edward Vesala"
INDEX 00 14:15:29
FILE "02 For Deep Deep Finnish Forest Cymbal Govenor.wav" WAVE
INDEX 01 00:00:00
TRACK 03 AUDIO
TITLE "Kippis"
PERFORMER "Peter Brotzmann, Juhani Aaltonen, Peter Kowald, Edward Vesala"
INDEX 00 02:43:44
FILE "03 Kippis.wav" WAVE
INDEX 01 00:00:00
TRACK 04 AUDIO
TITLE "Hot Lotta"
PERFORMER "Peter Brotzmann, Juhani Aaltonen, Peter Kowald, Edward Vesala"
INDEX 00 06:06:01
FILE "04 Hot Lotta.wav" WAVE
INDEX 01 00:00:00

http://www.discogs.com/Peter-Br%C3%B6tzmann-Juhani-Aaltonen-Peter-Kowald-Edward-V.../release/2797666
другие релизы
По всем вопросам пишите личное сообщение пользователю M0p94ok.
04:19
155
Нет комментариев. Ваш будет первым!