Вы используете незарегистрированную версию компонента "Вкладки"!

Поиск

(Free Jazz, Free Improvisation) [CD] Mark O'Leary, Uri Caine, Ben Perowsky - Closure - 2005, FLAC (tracks+.cue), lossless

(Free Jazz, Free Improvisation) [CD] Mark O'Leary, Uri Caine, Ben Perowsky - Closure - 2005, FLAC (tracks+.cue), lossless
Треклист:
Mark O'Leary, Uri Caine, Ben Perowsky / Closure
Жанр: Free Jazz, Free Improvisation
Носитель: CD
Страна-производитель диска: UK
Год издания: 2005
Издатель (лейбл): Leo Records
Номер по каталогу: CD LR 448
Страна: Ireland, US
Аудиокодек: FLAC (*.flac)
Тип рипа: tracks+.cue
Битрейт аудио: lossless
Продолжительность: 51:34
Источник (релизер): свой фирменный диск
Наличие сканов в содержимом раздачи:
Треклист:
1. No Time Soon 4:47
2. Animated 6:42
3. November Papers 3:20
4. Hysteria 4:02
5. Broken 2:57
6. Prepared 7:48
7. Closure 5:10
8. Surfacing 5:06
9. Caoineadh 7:08
10. Tribal Tendencies 4:24
 
Лог создания рипа
Exact Audio Copy V1.0 beta 3 from 29. August 2011
EAC extraction logfile from 1. December 2013, 18:33
Mark O'Leary, Uri Caine, Ben Perowsky / Closure
Used drive : PIONEER DVD-RW DVR-115D Adapter: 0 ID: 0
Read mode : Secure
Utilize accurate stream : Yes
Defeat audio cache : Yes
Make use of C2 pointers : No
Read offset correction : 48
Overread into Lead-In and Lead-Out : No
Fill up missing offset samples with silence : Yes
Delete leading and trailing silent blocks : No
Null samples used in CRC calculations : Yes
Used interface : Installed external ASPI interface
Gap handling : Appended to previous track
Used output format : User Defined Encoder
Selected bitrate : 896 kBit/s
Quality : High
Add ID3 tag : No
Command line compressor : C:\Program Files\Exact Audio Copy\FLAC\FLAC.EXE
Additional command line options : -6 -V -T "ARTIST=%artist%" -T "TITLE=%title%" -T "ALBUM=%albumtitle%" -T "DATE=%year%" -T "TRACKNUMBER=%tracknr%" -T "GENRE=%genre%" -T "COMMENT=%comment%" -T "BAND=%albuminterpret%" -T "COMPOSER=%composer%" %haslyrics%--tag-from-file=LYRICS="%lyricsfile%"%haslyrics% -T "DISCNUMBER=%cdnumber%" -T "TOTALDISCS=%totalcds%" -T "TOTALTRACKS=%numtracks%" %hascover%--picture="%coverfile%"%hascover% %source% -o %dest%
TOC of the extracted CD
Track | Start | Length | Start sector | End sector
---------------------------------------------------------
1 | 0:00.00 | 4:48.03 | 0 | 21602
2 | 4:48.03 | 6:42.27 | 21603 | 51779
3 | 11:30.30 | 3:20.07 | 51780 | 66786
4 | 14:50.37 | 4:03.16 | 66787 | 85027
5 | 18:53.53 | 2:57.69 | 85028 | 98371
6 | 21:51.47 | 7:49.57 | 98372 | 133603
7 | 29:41.29 | 5:11.01 | 133604 | 156929
8 | 34:52.30 | 5:08.27 | 156930 | 180056
9 | 40:00.57 | 7:08.35 | 180057 | 212191
10 | 47:09.17 | 4:24.60 | 212192 | 232051
Track 1
Filename D:\zzz\01 - No Time Soon.wav
Pre-gap length 0:00:02.00
Peak level 94.3 %
Extraction speed 4.4 X
Track quality 100.0 %
Test CRC BB772333
Copy CRC BB772333
Accurately ripped (confidence 1) [45FC7117] (AR v1)
Copy OK
Track 2
Filename D:\zzz\02 - Animated.wav
Peak level 61.9 %
Extraction speed 4.8 X
Track quality 99.9 %
Test CRC 5B0B2523
Copy CRC 5B0B2523
Accurately ripped (confidence 1) [FC45C267] (AR v1)
Copy OK
Track 3
Filename D:\zzz\03 - November Papers.wav
Peak level 21.5 %
Extraction speed 5.3 X
Track quality 100.0 %
Test CRC 6B18065F
Copy CRC 6B18065F
Accurately ripped (confidence 1) [F5AC5EA3] (AR v1)
Copy OK
Track 4
Filename D:\zzz\04 - Hysteria.wav
Peak level 77.1 %
Extraction speed 5.7 X
Track quality 100.0 %
Test CRC 4EB85E75
Copy CRC 4EB85E75
Accurately ripped (confidence 1) [27D250BB] (AR v1)
Copy OK
Track 5
Filename D:\zzz\05 - Broken.wav
Peak level 50.7 %
Extraction speed 4.9 X
Track quality 99.9 %
Test CRC 08F098A4
Copy CRC 08F098A4
Accurately ripped (confidence 1) [7F133324] (AR v1)
Copy OK
Track 6
Filename D:\zzz\06 - Prepared.wav
Peak level 95.5 %
Extraction speed 6.4 X
Track quality 99.9 %
Test CRC 292BF856
Copy CRC 292BF856
Accurately ripped (confidence 1) [0E5D2E83] (AR v1)
Copy OK
Track 7
Filename D:\zzz\07 - Closure.wav
Peak level 82.9 %
Extraction speed 7.0 X
Track quality 100.0 %
Test CRC 0C76C6DD
Copy CRC 0C76C6DD
Accurately ripped (confidence 1) [79ED1521] (AR v1)
Copy OK
Track 8
Filename D:\zzz\08 - Surfacing.wav
Peak level 67.7 %
Extraction speed 7.3 X
Track quality 100.0 %
Test CRC 863BAF3F
Copy CRC 863BAF3F
Accurately ripped (confidence 1) [695C239B] (AR v1)
Copy OK
Track 9
Filename D:\zzz\09 - Caoineadh.wav
Peak level 48.5 %
Extraction speed 7.9 X
Track quality 100.0 %
Test CRC 8BA2B1D0
Copy CRC 8BA2B1D0
Accurately ripped (confidence 1) [42BEE98F] (AR v1)
Copy OK
Track 10
Filename D:\zzz\10 - Tribal Tendencies.wav
Peak level 48.3 %
Extraction speed 7.9 X
Track quality 100.0 %
Test CRC F0C2F9DA
Copy CRC F0C2F9DA
Accurately ripped (confidence 1) [39E4443E] (AR v1)
Copy OK
All tracks accurately ripped
No errors occurred
End of status report
==== Log checksum F8A27B5998648CD58C3E44459CDB277702EE1DAF3477B345EB7833E04C9FBD02 ====
 
Содержание индексной карты (.CUE)
REM GENRE "Free Jazz"
REM DATE 2005
REM DISCID 7B0C160A
REM COMMENT "ExactAudioCopy v1.0b3"
PERFORMER "Mark O'Leary, Uri Caine, Ben Perowsky"
TITLE "Closure"
FILE "01 - No Time Soon.wav" WAVE
TRACK 01 AUDIO
TITLE "No Time Soon"
PERFORMER "Mark O'Leary, Uri Caine, Ben Perowsky"
INDEX 01 00:00:00
FILE "02 - Animated.wav" WAVE
TRACK 02 AUDIO
TITLE "Animated"
PERFORMER "Mark O'Leary, Uri Caine, Ben Perowsky"
INDEX 01 00:00:00
FILE "03 - November Papers.wav" WAVE
TRACK 03 AUDIO
TITLE "November Papers"
PERFORMER "Mark O'Leary, Uri Caine, Ben Perowsky"
INDEX 01 00:00:00
FILE "04 - Hysteria.wav" WAVE
TRACK 04 AUDIO
TITLE "Hysteria"
PERFORMER "Mark O'Leary, Uri Caine, Ben Perowsky"
INDEX 01 00:00:00
FILE "05 - Broken.wav" WAVE
TRACK 05 AUDIO
TITLE "Broken"
PERFORMER "Mark O'Leary, Uri Caine, Ben Perowsky"
INDEX 01 00:00:00
FILE "06 - Prepared.wav" WAVE
TRACK 06 AUDIO
TITLE "Prepared"
PERFORMER "Mark O'Leary, Uri Caine, Ben Perowsky"
INDEX 01 00:00:00
FILE "07 - Closure.wav" WAVE
TRACK 07 AUDIO
TITLE "Closure"
PERFORMER "Mark O'Leary, Uri Caine, Ben Perowsky"
INDEX 01 00:00:00
FILE "08 - Surfacing.wav" WAVE
TRACK 08 AUDIO
TITLE "Surfacing"
PERFORMER "Mark O'Leary, Uri Caine, Ben Perowsky"
INDEX 01 00:00:00
FILE "09 - Caoineadh.wav" WAVE
TRACK 09 AUDIO
TITLE "Caoineadh"
PERFORMER "Mark O'Leary, Uri Caine, Ben Perowsky"
INDEX 01 00:00:00
FILE "10 - Tribal Tendencies.wav" WAVE
TRACK 10 AUDIO
TITLE "Tribal Tendencies"
PERFORMER "Mark O'Leary, Uri Caine, Ben Perowsky"
INDEX 01 00:00:00
 
Лог проверки качества
d:\>d:\aucdtect -d/-m0 d:\zzz\*.wav
auCDtect: CD records authenticity detector, version 0.8.2
Copyright (c) 2004 Oleg Berngardt. All rights reserved.
Copyright (c) 2004 Alexander Djourik. All rights reserved.
------------------------------------------------------------
Processing file: [01. No Time Soon.wav]
------------------------------------------------------------
This track looks like CDDA with probability 100%
------------------------------------------------------------
Processing file: [02. Animated.wav]
------------------------------------------------------------
This track looks like CDDA with probability 99%
------------------------------------------------------------
Processing file: [03. November Papers.wav]
------------------------------------------------------------
This track looks like CDDA with probability 100%
------------------------------------------------------------
Processing file: [04. Hysteria.wav]
------------------------------------------------------------
This track looks like CDDA with probability 100%
------------------------------------------------------------
Processing file: [05. Broken.wav]
------------------------------------------------------------
This track looks like CDDA with probability 100%
------------------------------------------------------------
Processing file: [06. Prepared.wav]
------------------------------------------------------------
This track looks like CDDA with probability 100%
------------------------------------------------------------
Processing file: [07. Closure.wav]
------------------------------------------------------------
This track looks like CDDA with probability 100%
------------------------------------------------------------
Processing file: [08. Surfacing.wav]
------------------------------------------------------------
This track looks like CDDA with probability 100%
------------------------------------------------------------
Processing file: [09. Caoineadh.wav]
------------------------------------------------------------
This track looks like CDDA with probability 100%
------------------------------------------------------------
Processing file: [10. Tribal Tendencies.wav]
------------------------------------------------------------
This track looks like CDDA with probability 100%
------------------------------------------------------------
Final Conclusion:
------------------------------------------------------------
These tracks looks like CDDA with probability 100%
Доп. информация:
 
Album Info & AMG Review
All compositions by Mark O'Leary except 3 & 10 by O'Leary/Caine/Perowsky
Recorded April 2003 at Acoustic Recording, Brooklyn, New York
Recording engineer Michael Brorby
Mixed & edited at the Hub by Donncha Moynihan
Front cover painting by Vladislav Makarov
Design by Lora Denis
Produced by Mark O'Leary & Leo Feigin
Listened to casually, the trio of guitarist Mark O'Leary, pianist Uri Caine, and drummer Ben Perowsky seems conventional, particularly in their tones. However, the performances of this bass-less trio, while at times melodic and logical, are often quite free and are consistently unpredictable. The closer one listens to Closure, the more one discovers. The pieces alternate between rock-ish explorations and moody ballads, but even during the "safer" moments, there is an element of danger in the interplay of the trio. These musicians never take it easy or rely on licks, making Closure a set well worth listening to closely.
 
Состав
Mark O'Leary: guitar
Uri Caine: piano
Ben Perowsky: drums/percussion
Any questions -> support@pro-jazz.com. По всем вопросам пишите -> support@pro-jazz.com
21:17
148
Нет комментариев. Ваш будет первым!