Вы используете незарегистрированную версию компонента "Вкладки"!

Поиск

(Free Jazz, Contemporary Jazz) [CD] Mark O'Leary, Mat Maneri, Matthew Shipp - Chamber Trio - 2005, FLAC (tracks+.cue), lossless

(Free Jazz, Contemporary Jazz) [CD] Mark O'Leary, Mat Maneri, Matthew Shipp - Chamber Trio - 2005, FLAC (tracks+.cue), lossless
Треклист:
Mark O'Leary, Mat Maneri, Matthew Shipp / Chamber Trio
Жанр: Free Jazz, Contemporary Jazz
Носитель: CD
Страна-производитель диска: UK
Год издания: 2005
Издатель (лейбл): Leo Records
Номер по каталогу: CD LR 425
Страна: Ireland, US
Аудиокодек: FLAC (*.flac)
Тип рипа: tracks+.cue
Битрейт аудио: lossless
Продолжительность: 65:24
Источник (релизер): свой фирменный диск
Наличие сканов в содержимом раздачи:
Треклист:
1. Jaunt 9:19
2. Simple Simon 6:37
3. Rest 8:24
4. I Am Not The Only One 8:24
5. Voice Crack 7:57
6. St. Ives 6:54
7. Ligeture 8:40
8. Kurts Park 9:01
 
Лог создания рипа
Exact Audio Copy V1.0 beta 3 from 29. August 2011
EAC extraction logfile from 30. November 2013, 20:11
Mark O'Leary, Mat Maneri, Matthew Shipp / Chamber Trio
Used drive : PIONEER DVD-RW DVR-115D Adapter: 0 ID: 0
Read mode : Secure
Utilize accurate stream : Yes
Defeat audio cache : Yes
Make use of C2 pointers : No
Read offset correction : 48
Overread into Lead-In and Lead-Out : No
Fill up missing offset samples with silence : Yes
Delete leading and trailing silent blocks : No
Null samples used in CRC calculations : Yes
Used interface : Installed external ASPI interface
Gap handling : Appended to previous track
Used output format : User Defined Encoder
Selected bitrate : 896 kBit/s
Quality : High
Add ID3 tag : No
Command line compressor : C:\Program Files\Exact Audio Copy\FLAC\FLAC.EXE
Additional command line options : -6 -V -T "ARTIST=%artist%" -T "TITLE=%title%" -T "ALBUM=%albumtitle%" -T "DATE=%year%" -T "TRACKNUMBER=%tracknr%" -T "GENRE=%genre%" -T "COMMENT=%comment%" -T "BAND=%albuminterpret%" -T "COMPOSER=%composer%" %haslyrics%--tag-from-file=LYRICS="%lyricsfile%"%haslyrics% -T "DISCNUMBER=%cdnumber%" -T "TOTALDISCS=%totalcds%" -T "TOTALTRACKS=%numtracks%" %hascover%--picture="%coverfile%"%hascover% %source% -o %dest%
TOC of the extracted CD
Track | Start | Length | Start sector | End sector
---------------------------------------------------------
1 | 0:00.00 | 9:19.17 | 0 | 41941
2 | 9:19.17 | 6:37.44 | 41942 | 71760
3 | 15:56.61 | 8:24.62 | 71761 | 109622
4 | 24:21.48 | 8:24.65 | 109623 | 147487
5 | 32:46.38 | 7:57.65 | 147488 | 183327
6 | 40:44.28 | 6:54.70 | 183328 | 214447
7 | 47:39.23 | 8:40.67 | 214448 | 253514
8 | 56:20.15 | 9:03.68 | 253515 | 294307
Track 1
Filename D:\zzz\01 - Jaunt.wav
Pre-gap length 0:00:02.00
Peak level 63.0 %
Extraction speed 4.9 X
Track quality 100.0 %
Test CRC 4A0E669F
Copy CRC 4A0E669F
Accurately ripped (confidence 1) [0937E2CA] (AR v2)
Copy OK
Track 2
Filename D:\zzz\02 - Simple Simon.wav
Peak level 59.4 %
Extraction speed 5.6 X
Track quality 100.0 %
Test CRC 83BB100E
Copy CRC 83BB100E
Accurately ripped (confidence 1) [9630E915] (AR v2)
Copy OK
Track 3
Filename D:\zzz\03 - Rest.wav
Peak level 61.1 %
Extraction speed 6.4 X
Track quality 100.0 %
Test CRC 2A1F3FBF
Copy CRC 2A1F3FBF
Accurately ripped (confidence 1) [D921DE52] (AR v2)
Copy OK
Track 4
Filename D:\zzz\04 - I Am Not The Only One.wav
Peak level 94.4 %
Extraction speed 7.0 X
Track quality 100.0 %
Test CRC FBC4DA13
Copy CRC FBC4DA13
Accurately ripped (confidence 1) [39213B5C] (AR v2)
Copy OK
Track 5
Filename D:\zzz\05 - Voice Crack.wav
Peak level 87.3 %
Extraction speed 7.5 X
Track quality 100.0 %
Test CRC 81B4245C
Copy CRC 81B4245C
Accurately ripped (confidence 1) [1A46A344] (AR v2)
Copy OK
Track 6
Filename D:\zzz\06 - St. Ives.wav
Peak level 89.5 %
Extraction speed 7.8 X
Track quality 100.0 %
Test CRC EE2D3355
Copy CRC EE2D3355
Accurately ripped (confidence 1) [8052FC39] (AR v2)
Copy OK
Track 7
Filename D:\zzz\07 - Ligeture.wav
Peak level 65.7 %
Extraction speed 7.9 X
Track quality 99.9 %
Test CRC 8268F2E3
Copy CRC 8268F2E3
Accurately ripped (confidence 1) [E660D245] (AR v2)
Copy OK
Track 8
Filename D:\zzz\08 - Kurts Park.wav
Peak level 94.4 %
Extraction speed 8.8 X
Track quality 100.0 %
Test CRC BAC224C2
Copy CRC BAC224C2
Accurately ripped (confidence 1) [987A19AB] (AR v2)
Copy OK
All tracks accurately ripped
No errors occurred
End of status report
==== Log checksum 14C8D65550C9D6D54394617811C98B6BD708754D1ACDA8F43122135372212F7C ====
 
Содержание индексной карты (.CUE)
REM GENRE "Free Improvisation"
REM DATE 2005
REM DISCID 7B0F5408
REM COMMENT "ExactAudioCopy v1.0b3"
PERFORMER "Mark O'Leary, Mat Maneri, Matthew Shipp"
TITLE "Chamber Trio"
FILE "01 - Jaunt.wav" WAVE
TRACK 01 AUDIO
TITLE "Jaunt"
PERFORMER "Mark O'Leary, Mat Maneri, Matthew Shipp"
INDEX 01 00:00:00
FILE "02 - Simple Simon.wav" WAVE
TRACK 02 AUDIO
TITLE "Simple Simon"
PERFORMER "Mark O'Leary, Mat Maneri, Matthew Shipp"
INDEX 01 00:00:00
FILE "03 - Rest.wav" WAVE
TRACK 03 AUDIO
TITLE "Rest"
PERFORMER "Mark O'Leary, Mat Maneri, Matthew Shipp"
INDEX 01 00:00:00
FILE "04 - I Am Not The Only One.wav" WAVE
TRACK 04 AUDIO
TITLE "I Am Not The Only One"
PERFORMER "Mark O'Leary, Mat Maneri, Matthew Shipp"
INDEX 01 00:00:00
FILE "05 - Voice Crack.wav" WAVE
TRACK 05 AUDIO
TITLE "Voice Crack"
PERFORMER "Mark O'Leary, Mat Maneri, Matthew Shipp"
INDEX 01 00:00:00
FILE "06 - St. Ives.wav" WAVE
TRACK 06 AUDIO
TITLE "St. Ives"
PERFORMER "Mark O'Leary, Mat Maneri, Matthew Shipp"
INDEX 01 00:00:00
FILE "07 - Ligeture.wav" WAVE
TRACK 07 AUDIO
TITLE "Ligeture"
PERFORMER "Mark O'Leary, Mat Maneri, Matthew Shipp"
INDEX 01 00:00:00
FILE "08 - Kurts Park.wav" WAVE
TRACK 08 AUDIO
TITLE "Kurts Park"
PERFORMER "Mark O'Leary, Mat Maneri, Matthew Shipp"
INDEX 01 00:00:00
 
Лог проверки качества
d:\>d:\aucdtect -d/-m0 d:\zzz\*.wav
auCDtect: CD records authenticity detector, version 0.8.2
Copyright (c) 2004 Oleg Berngardt. All rights reserved.
Copyright (c) 2004 Alexander Djourik. All rights reserved.
------------------------------------------------------------
Processing file: [01. Jaunt.wav]
------------------------------------------------------------
This track looks like CDDA with probability 100%
------------------------------------------------------------
Processing file: [02. Simple Simon.wav]
------------------------------------------------------------
This track looks like CDDA with probability 100%
------------------------------------------------------------
Processing file: [03. Rest.wav]
------------------------------------------------------------
This track looks like CDDA with probability 100%
------------------------------------------------------------
Processing file: [04. I Am Not The Only One.wav]
------------------------------------------------------------
This track looks like CDDA with probability 100%
------------------------------------------------------------
Processing file: [05. Voice Crack.wav]
------------------------------------------------------------
This track looks like CDDA with probability 100%
------------------------------------------------------------
Processing file: [06. St. Ives.wav]
------------------------------------------------------------
This track looks like CDDA with probability 100%
------------------------------------------------------------
Processing file: [07. Ligeture.wav]
------------------------------------------------------------
This track looks like CDDA with probability 100%
------------------------------------------------------------
Processing file: [08. Kurts Park.wav]
------------------------------------------------------------
This track looks like CDDA with probability 100%
------------------------------------------------------------
Final Conclusion:
------------------------------------------------------------
These tracks looks like CDDA with probability 100%
Доп. информация:
 
Album Info & AMG Review
Music by Mark O'Leary, Mat Maneri, Matthew Shipp
Produced by Mark O'Leary & Leo Feigin
Recorded January 4, 2002 at Acoustic Recording, Brooklyn, New York
Recording engineer Michael Brorby
Mixed by Donncha Moynihan at the Hub, Cork
Edited by Harry Fulcher & Leo Feigin
Mark O'Leary's photo by Pat McArdle
Matthew Shipp's photo by Francesca Pfeffer
Liner notes by Steve Day
In July 2005, the noted avant-garde jazz label Leo Records released two albums featuring guitarist Mark O'Leary and violinist Mat Maneri (the other CD is titled Self-Luminous). Both sessions were recorded on the same day, January 4, 2002. Sitting at the piano, Matthew Shipp rounds out the pair on Chamber Trio. The music remains intentionally soft-spoken throughout the set, respecting the mood hinted at in the title. At times, Shipp is almost in cabaret mode, trickling high notes and sketching motives before coming back to playing slippery phantom chord changes. Maneri's signature sound -- a certain moaning quality of the bow, a way of fading in his contributions, as if he were using a volume pedal -- is a perfect match for O'Leary's almost unassertive style. This one is using a volume pedal. He also keeps his amp down, which makes each note sound like it is being squeezed out of the instrument with some effort. The effect is not quite unheard-of, but O'Leary takes it to a new level, especially in "Jaunt" and "Rest," two highlights. When he drops this technique to become more talkative (as in "Kurts Park"), his contribution loses some of its uniqueness, although he is a gifted player, with a strong sense of phrasing, which is not as widespread in free improvisation as one would think. By pointing to well-known modern composers, titles like "St. Ives" and "Ligeture" give away a few pieces of the puzzle, but they also mislead. After all, Chamber Trio is mostly dominated by the jazz ethos, thanks mostly to the keen sense of melody O'Leary and Maneri share, and the fact that Shipp is moonlighting as a bop player on a few tunes.
 
Состав
Mark O'Leary: guitar
Mat Maneri: viola
Matthew Shipp: piano
По всем вопросам пишите личное сообщение пользователю M0p94ok.
21:16
181
Нет комментариев. Ваш будет первым!