Вы используете незарегистрированную версию компонента "Вкладки"!

Поиск

(Avant-Garde Jazz, Free Jazz) [CD] Peter A. Schmid & Vinny Golia - Birdology - 2004, FLAC (tracks+.cue), lossless

(Avant-Garde Jazz, Free Jazz) [CD] Peter A. Schmid & Vinny Golia - Birdology - 2004, FLAC (tracks+.cue), lossless
Треклист:
Peter A. Schmid & Vinny Golia / Birdology
Жанр: Avant-Garde Jazz, Free Jazz
Носитель: CD
Страна-производитель диска: UK
Год издания: 2004
Издатель (лейбл): Leo Records
Номер по каталогу: CD LR 389
Страна: Switzerland, US
Аудиокодек: FLAC (*.flac)
Тип рипа: tracks+.cue
Битрейт аудио: lossless
Продолжительность: 56:10
Источник (релизер): свой фирменный диск
Наличие сканов в содержимом раздачи:
Треклист:
1. Clarinet Choir 1:33
2. Blackbirds 5:46
3. Madenhacker I 3:52
4. Taubenbalz 3:49
5. Pharaona 2:25
6. Flute Choir 1:26
7. Moventanz 2:36
8. Wiedehopf 6:22
9. Frasserbiine 1:46
10. Some Other Blackbirds 5:51
11. Ameisen Und B-Meisen 3:33
12. Dodo & Other Extinct Species 5:13
13. Movenschrei 0:56
14. Madenhacker II 5:17
15. Woodpecker Duet 2:58
16. Saxophone Choir 2:44
 
Лог создания рипа
Exact Audio Copy V1.0 beta 3 from 29. August 2011
EAC extraction logfile from 29. November 2013, 21:51
Peter A. Schmid & Vinny Golia / Birdology
Used drive : PIONEER DVD-RW DVR-115D Adapter: 0 ID: 0
Read mode : Secure
Utilize accurate stream : Yes
Defeat audio cache : Yes
Make use of C2 pointers : No
Read offset correction : 48
Overread into Lead-In and Lead-Out : No
Fill up missing offset samples with silence : Yes
Delete leading and trailing silent blocks : No
Null samples used in CRC calculations : Yes
Used interface : Installed external ASPI interface
Gap handling : Appended to previous track
Used output format : User Defined Encoder
Selected bitrate : 896 kBit/s
Quality : High
Add ID3 tag : No
Command line compressor : C:\Program Files\Exact Audio Copy\FLAC\FLAC.EXE
Additional command line options : -6 -V -T "ARTIST=%artist%" -T "TITLE=%title%" -T "ALBUM=%albumtitle%" -T "DATE=%year%" -T "TRACKNUMBER=%tracknr%" -T "GENRE=%genre%" -T "COMMENT=%comment%" -T "BAND=%albuminterpret%" -T "COMPOSER=%composer%" %haslyrics%--tag-from-file=LYRICS="%lyricsfile%"%haslyrics% -T "DISCNUMBER=%cdnumber%" -T "TOTALDISCS=%totalcds%" -T "TOTALTRACKS=%numtracks%" %hascover%--picture="%coverfile%"%hascover% %source% -o %dest%
TOC of the extracted CD
Track | Start | Length | Start sector | End sector
---------------------------------------------------------
1 | 0:00.00 | 1:33.38 | 0 | 7012
2 | 1:33.38 | 5:46.34 | 7013 | 32996
3 | 7:19.72 | 3:51.71 | 32997 | 50392
4 | 11:11.68 | 3:49.02 | 50393 | 67569
5 | 15:00.70 | 2:25.59 | 67570 | 78503
6 | 17:26.54 | 1:26.14 | 78504 | 84967
7 | 18:52.68 | 2:36.14 | 84968 | 96681
8 | 21:29.07 | 6:22.38 | 96682 | 125369
9 | 27:51.45 | 1:46.35 | 125370 | 133354
10 | 29:38.05 | 5:51.06 | 133355 | 159685
11 | 35:29.11 | 3:33.20 | 159686 | 175680
12 | 39:02.31 | 5:13.58 | 175681 | 199213
13 | 44:16.14 | 0:56.47 | 199214 | 203460
14 | 45:12.61 | 5:17.40 | 203461 | 227275
15 | 50:30.26 | 2:56.12 | 227276 | 240487
16 | 53:26.38 | 2:44.04 | 240488 | 252791
Track 1
Filename D:\zzz\01 - Clarinet Choir.wav
Pre-gap length 0:00:02.00
Peak level 82.4 %
Extraction speed 3.4 X
Track quality 100.0 %
Test CRC 3548D917
Copy CRC 3548D917
Track not present in AccurateRip database
Copy OK
Track 2
Filename D:\zzz\02 - Blackbirds.wav
Pre-gap length 0:00:03.45
Peak level 91.2 %
Extraction speed 4.8 X
Track quality 100.0 %
Test CRC FC3597B3
Copy CRC FC3597B3
Track not present in AccurateRip database
Copy OK
Track 3
Filename D:\zzz\03 - Madenhacker I.wav
Pre-gap length 0:00:03.45
Peak level 91.2 %
Extraction speed 5.0 X
Track quality 100.0 %
Test CRC 13D1BBE6
Copy CRC 13D1BBE6
Track not present in AccurateRip database
Copy OK
Track 4
Filename D:\zzz\04 - Taubenbalz.wav
Pre-gap length 0:00:03.45
Peak level 85.9 %
Extraction speed 5.4 X
Track quality 100.0 %
Test CRC 5E464BB4
Copy CRC 5E464BB4
Track not present in AccurateRip database
Copy OK
Track 5
Filename D:\zzz\05 - Pharaona.wav
Pre-gap length 0:00:03.45
Peak level 88.9 %
Extraction speed 5.2 X
Track quality 100.0 %
Test CRC B7F7E79D
Copy CRC B7F7E79D
Track not present in AccurateRip database
Copy OK
Track 6
Filename D:\zzz\06 - Flute Choir.wav
Pre-gap length 0:00:03.45
Peak level 90.0 %
Extraction speed 4.7 X
Track quality 100.0 %
Test CRC F1BEDD8C
Copy CRC F1BEDD8C
Track not present in AccurateRip database
Copy OK
Track 7
Filename D:\zzz\07 - Moventanz.wav
Pre-gap length 0:00:03.45
Peak level 40.7 %
Extraction speed 5.5 X
Track quality 100.0 %
Test CRC 64160B81
Copy CRC 64160B81
Track not present in AccurateRip database
Copy OK
Track 8
Filename D:\zzz\08 - Wiedehopf.wav
Pre-gap length 0:00:03.45
Peak level 91.2 %
Extraction speed 6.6 X
Track quality 100.0 %
Test CRC B89B230C
Copy CRC B89B230C
Track not present in AccurateRip database
Copy OK
Track 9
Filename D:\zzz\09 - Frasserbiine.wav
Pre-gap length 0:00:03.45
Peak level 82.1 %
Extraction speed 5.7 X
Track quality 100.0 %
Test CRC A72CE234
Copy CRC A72CE234
Track not present in AccurateRip database
Copy OK
Track 10
Filename D:\zzz\10 - Some Other Blackbirds.wav
Pre-gap length 0:00:03.45
Peak level 91.2 %
Extraction speed 6.5 X
Track quality 99.9 %
Test CRC 84B7412E
Copy CRC 84B7412E
Track not present in AccurateRip database
Copy OK
Track 11
Filename D:\zzz\11 - Ameisen Und B-Meisen.wav
Pre-gap length 0:00:03.45
Peak level 79.3 %
Extraction speed 7.0 X
Track quality 100.0 %
Test CRC E2366FEE
Copy CRC E2366FEE
Track not present in AccurateRip database
Copy OK
Track 12
Filename D:\zzz\12 - Dodo & Other Extinct Species.wav
Pre-gap length 0:00:03.45
Peak level 91.2 %
Extraction speed 7.5 X
Track quality 100.0 %
Test CRC C0DB893D
Copy CRC C0DB893D
Track not present in AccurateRip database
Copy OK
Track 13
Filename D:\zzz\13 - Movenschrei.wav
Pre-gap length 0:00:03.45
Peak level 85.1 %
Extraction speed 5.2 X
Track quality 100.0 %
Test CRC 8A4EF909
Copy CRC 8A4EF909
Track not present in AccurateRip database
Copy OK
Track 14
Filename D:\zzz\14 - Madenhacker II.wav
Pre-gap length 0:00:03.45
Peak level 91.2 %
Extraction speed 7.9 X
Track quality 100.0 %
Test CRC 6210638D
Copy CRC 6210638D
Track not present in AccurateRip database
Copy OK
Track 15
Filename D:\zzz\15 - Woodpecker Duet.wav
Pre-gap length 0:00:03.45
Peak level 90.1 %
Extraction speed 7.5 X
Track quality 100.0 %
Test CRC 3E2EE513
Copy CRC 3E2EE513
Track not present in AccurateRip database
Copy OK
Track 16
Filename D:\zzz\16 - Saxophone Choir.wav
Pre-gap length 0:00:01.45
Peak level 91.2 %
Extraction speed 7.5 X
Track quality 100.0 %
Test CRC 3EE3AD80
Copy CRC 3EE3AD80
Track not present in AccurateRip database
Copy OK
None of the tracks are present in the AccurateRip database
No errors occurred
End of status report
==== Log checksum 51BE8323912E0507FD47736A39BEF7D86BB3047A0F4ED2D5BE11AD31FCE50D23 ====
 
Содержание индексной карты (.CUE)
REM GENRE "Avant-Garde Jazz"
REM DATE 2004
REM DISCID C40D2A10
REM COMMENT "ExactAudioCopy v1.0b3"
PERFORMER "Peter A. Schmid & Vinny Golia"
TITLE "Birdology"
FILE "01 - Clarinet Choir.wav" WAVE
TRACK 01 AUDIO
TITLE "Clarinet Choir"
PERFORMER "Peter A. Schmid & Vinny Golia"
FLAGS DCP
INDEX 01 00:00:00
TRACK 02 AUDIO
TITLE "Blackbirds"
PERFORMER "Peter A. Schmid & Vinny Golia"
FLAGS DCP
INDEX 00 01:29:68
FILE "02 - Blackbirds.wav" WAVE
INDEX 01 00:00:00
TRACK 03 AUDIO
TITLE "Madenhacker I"
PERFORMER "Peter A. Schmid & Vinny Golia"
FLAGS DCP
INDEX 00 05:42:64
FILE "03 - Madenhacker I.wav" WAVE
INDEX 01 00:00:00
TRACK 04 AUDIO
TITLE "Taubenbalz"
PERFORMER "Peter A. Schmid & Vinny Golia"
FLAGS DCP
INDEX 00 03:48:26
FILE "04 - Taubenbalz.wav" WAVE
INDEX 01 00:00:00
TRACK 05 AUDIO
TITLE "Pharaona"
PERFORMER "Peter A. Schmid & Vinny Golia"
FLAGS DCP
INDEX 00 03:45:32
FILE "05 - Pharaona.wav" WAVE
INDEX 01 00:00:00
TRACK 06 AUDIO
TITLE "Flute Choir"
PERFORMER "Peter A. Schmid & Vinny Golia"
FLAGS DCP
INDEX 00 02:22:14
FILE "06 - Flute Choir.wav" WAVE
INDEX 01 00:00:00
TRACK 07 AUDIO
TITLE "Moventanz"
PERFORMER "Peter A. Schmid & Vinny Golia"
FLAGS DCP
INDEX 00 01:22:44
FILE "07 - Moventanz.wav" WAVE
INDEX 01 00:00:00
TRACK 08 AUDIO
TITLE "Wiedehopf"
PERFORMER "Peter A. Schmid & Vinny Golia"
FLAGS DCP
INDEX 00 02:32:44
FILE "08 - Wiedehopf.wav" WAVE
INDEX 01 00:00:00
TRACK 09 AUDIO
TITLE "Frasserbiine"
PERFORMER "Peter A. Schmid & Vinny Golia"
FLAGS DCP
INDEX 00 06:18:68
FILE "09 - Frasserbiine.wav" WAVE
INDEX 01 00:00:00
TRACK 10 AUDIO
TITLE "Some Other Blackbirds"
PERFORMER "Peter A. Schmid & Vinny Golia"
FLAGS DCP
INDEX 00 01:42:65
FILE "10 - Some Other Blackbirds.wav" WAVE
INDEX 01 00:00:00
TRACK 11 AUDIO
TITLE "Ameisen Und B-Meisen"
PERFORMER "Peter A. Schmid & Vinny Golia"
FLAGS DCP
INDEX 00 05:47:36
FILE "11 - Ameisen Und B-Meisen.wav" WAVE
INDEX 01 00:00:00
TRACK 12 AUDIO
TITLE "Dodo & Other Extinct Species"
PERFORMER "Peter A. Schmid & Vinny Golia"
FLAGS DCP
INDEX 00 03:29:50
FILE "12 - Dodo & Other Extinct Species.wav" WAVE
INDEX 01 00:00:00
TRACK 13 AUDIO
TITLE "Movenschrei"
PERFORMER "Peter A. Schmid & Vinny Golia"
FLAGS DCP
INDEX 00 05:10:13
FILE "13 - Movenschrei.wav" WAVE
INDEX 01 00:00:00
TRACK 14 AUDIO
TITLE "Madenhacker II"
PERFORMER "Peter A. Schmid & Vinny Golia"
FLAGS DCP
INDEX 00 00:53:02
FILE "14 - Madenhacker II.wav" WAVE
INDEX 01 00:00:00
TRACK 15 AUDIO
TITLE "Woodpecker Duet"
PERFORMER "Peter A. Schmid & Vinny Golia"
FLAGS DCP
INDEX 00 05:13:70
FILE "15 - Woodpecker Duet.wav" WAVE
INDEX 01 00:00:00
TRACK 16 AUDIO
TITLE "Saxophone Choir"
PERFORMER "Peter A. Schmid & Vinny Golia"
FLAGS DCP
INDEX 00 02:54:42
FILE "16 - Saxophone Choir.wav" WAVE
INDEX 01 00:00:00
 
Лог проверки качества
d:\>d:\aucdtect -d/-m0 d:\zzz\*.wav
auCDtect: CD records authenticity detector, version 0.8.2
Copyright (c) 2004 Oleg Berngardt. All rights reserved.
Copyright (c) 2004 Alexander Djourik. All rights reserved.
------------------------------------------------------------
Processing file: [01. Clarinet Choir.wav]
------------------------------------------------------------
This track looks like CDDA with probability 100%
------------------------------------------------------------
Processing file: [02. Blackbirds.wav]
------------------------------------------------------------
This track looks like CDDA with probability 100%
------------------------------------------------------------
Processing file: [03. Madenhacker I.wav]
------------------------------------------------------------
This track looks like CDDA with probability 100%
------------------------------------------------------------
Processing file: [04. Taubenbalz.wav]
------------------------------------------------------------
This track looks like CDDA with probability 100%
------------------------------------------------------------
Processing file: [05. Pharaona.wav]
------------------------------------------------------------
This track looks like CDDA with probability 100%
------------------------------------------------------------
Processing file: [06. Flute Choir.wav]
------------------------------------------------------------
This track looks like CDDA with probability 99%
------------------------------------------------------------
Processing file: [07. Moventanz.wav]
------------------------------------------------------------
This track looks like CDDA with probability 100%
------------------------------------------------------------
Processing file: [08. Wiedehopf.wav]
------------------------------------------------------------
This track looks like CDDA with probability 100%
------------------------------------------------------------
Processing file: [09. Frasserbiine.wav]
------------------------------------------------------------
This track looks like CDDA with probability 100%
------------------------------------------------------------
Processing file: [10. Some Other Blackbirds.wav]
------------------------------------------------------------
This track looks like CDDA with probability 100%
------------------------------------------------------------
Processing file: [11. Ameisen Und B-Meisen.wav]
------------------------------------------------------------
This track looks like CDDA with probability 100%
------------------------------------------------------------
Processing file: [12. Dodo & Other Extinct Species.wav]
------------------------------------------------------------
This track looks like CDDA with probability 100%
------------------------------------------------------------
Processing file: [13. Movenschrei.wav]
------------------------------------------------------------
This track looks like CDDA with probability 58%
------------------------------------------------------------
Processing file: [14. Madenhacker II.wav]
------------------------------------------------------------
This track looks like CDDA with probability 100%
------------------------------------------------------------
Processing file: [15. Woodpecker Duet.wav]
------------------------------------------------------------
This track looks like CDDA with probability 100%
------------------------------------------------------------
Processing file: [16. Saxophone Choir.wav]
------------------------------------------------------------
This track looks like CDDA with probability 99%
------------------------------------------------------------
Final Conclusion:
------------------------------------------------------------
These tracks looks like CDDA with probability 100%
Доп. информация:
 
Album Info & AMG Review
All music by Peter A. Schmid & Vinny Golia
Recorded on March 24, 2003 at Hardstudio Winterthur/Switzerland (Moritz Wetter)
Mastered at Ballhorn Studio by Klaus Grimmer
Recording produced by Peter A. Schmid
Liner notes by Stuart Broomer
Design by Lora Denis
Produced by Leo Feigin
Despite the fact that this duo recording of master reed and woodwinds players Peter A. Schmid and Vinny Golia is entitled Birdology, it is not a tribute to the late Charlie Yardbird Parker, but rather reflects the habits, migration, and nesting aspects of the creatures themselves. However, the flocks of birds are in a sense metaphorical, in that these 16 pieces reflect flockings of instruments, including tubas, clarinets, flutes, piccolos, recorders, saxophones, etc. These are tonal studies; they offer aural scenes of travel, gestation, and migration from one aspect of sound to another, with deep inquiry and playfulness based on the harmonic and scalar possibilities not only in each instrument, but in the abilities of each player. Nothing here is over six and a half minutes, with the vast majority of pieces clocking in under the four-minute mark. There is a directness of approach and attack here that brings the taut immediacy of an articulation or investigation right to the listener without her or him having to speculate what the point might be. This music flows, dips, floats, and soars, and is a sheer joy to encounter. Birdology is sheer delight.
 
Состав
Peter A. Schmid: tubax, baritone & sopranino saxophones; bass flute, bass recorder, wooden flutes, taragot; contrabass, bass & Eb clarinets
Vinny Golia: tubax, sopranino saxophone, saxello; alto flute, piccolo, wooden flutes, ney; bass, Bb & Eb clarinets
По всем вопросам пишите личное сообщение пользователю M0p94ok.
21:15
179
Нет комментариев. Ваш будет первым!