Вы используете незарегистрированную версию компонента "Вкладки"!

Поиск

(Avant-Garde Jazz, Big Band) [CD] Dolmen Orchestra (feat. Yves Robert) - Minotrauma - 2001, FLAC (tracks+.cue), lossless

(Avant-Garde Jazz, Big Band) [CD] Dolmen Orchestra (feat. Yves Robert) - Minotrauma - 2001, FLAC (tracks+.cue), lossless
Треклист:
Dolmen Orchestra / Minotrauma
Жанр: Avant-Garde Jazz, Big Band
Носитель: CD
Страна-производитель диска: UK
Год издания: 2001
Издатель (лейбл): Leo Records
Номер по каталогу: CD LR 327
Страна: Italy
Аудиокодек: FLAC (*.flac)
Тип рипа: tracks+.cue
Битрейт аудио: lossless
Продолжительность: 72:45
Источник (релизер): свой фирменный диск
Наличие сканов в содержимом раздачи:
Треклист:
1. 1st Conduction - Opening 2:55
2. ...Del Minotauro 8:33
3. He Was In A World 9:09
4. 2nd Conduction - Moving 2:09
5. Posaunetaurus Tanz 15:01
6. Minotaurus 11:40
7. Il Mitonauta 18:47
8. 3rd Conduction - Awakening 4:26
 
Лог создания рипа
Exact Audio Copy V1.0 beta 3 from 29. August 2011
EAC extraction logfile from 28. November 2013, 21:42
Dolmen Orchestra / Minotrauma
Used drive : PIONEER DVD-RW DVR-115D Adapter: 0 ID: 0
Read mode : Secure
Utilize accurate stream : Yes
Defeat audio cache : Yes
Make use of C2 pointers : No
Read offset correction : 48
Overread into Lead-In and Lead-Out : No
Fill up missing offset samples with silence : Yes
Delete leading and trailing silent blocks : No
Null samples used in CRC calculations : Yes
Used interface : Installed external ASPI interface
Gap handling : Appended to previous track
Used output format : User Defined Encoder
Selected bitrate : 896 kBit/s
Quality : High
Add ID3 tag : No
Command line compressor : C:\Program Files\Exact Audio Copy\FLAC\FLAC.EXE
Additional command line options : -6 -V -T "ARTIST=%artist%" -T "TITLE=%title%" -T "ALBUM=%albumtitle%" -T "DATE=%year%" -T "TRACKNUMBER=%tracknr%" -T "GENRE=%genre%" -T "COMMENT=%comment%" -T "BAND=%albuminterpret%" -T "COMPOSER=%composer%" %haslyrics%--tag-from-file=LYRICS="%lyricsfile%"%haslyrics% -T "DISCNUMBER=%cdnumber%" -T "TOTALDISCS=%totalcds%" -T "TOTALTRACKS=%numtracks%" %hascover%--picture="%coverfile%"%hascover% %source% -o %dest%
TOC of the extracted CD
Track | Start | Length | Start sector | End sector
---------------------------------------------------------
1 | 0:00.00 | 2:55.73 | 0 | 13197
2 | 2:55.73 | 8:33.56 | 13198 | 51728
3 | 11:29.54 | 9:09.29 | 51729 | 92932
4 | 20:39.08 | 2:09.70 | 92933 | 102677
5 | 22:49.03 | 15:01.47 | 102678 | 170299
6 | 37:50.50 | 11:40.41 | 170300 | 222840
7 | 49:31.16 | 18:47.17 | 222841 | 307382
8 | 68:18.33 | 4:26.45 | 307383 | 327377
Track 1
Filename D:\zzz\01 - 1st Conduction - Opening.wav
Pre-gap length 0:00:02.00
Peak level 78.3 %
Extraction speed 3.8 X
Track quality 99.9 %
Test CRC 54B826DD
Copy CRC 54B826DD
Track not present in AccurateRip database
Copy OK
Track 2
Filename D:\zzz\02 - ...Del Minotauro.wav
Peak level 84.2 %
Extraction speed 5.7 X
Track quality 100.0 %
Test CRC 60BB9487
Copy CRC 60BB9487
Track not present in AccurateRip database
Copy OK
Track 3
Filename D:\zzz\03 - He Was In A World.wav
Peak level 85.1 %
Extraction speed 6.5 X
Track quality 100.0 %
Test CRC 51290F4F
Copy CRC 51290F4F
Track not present in AccurateRip database
Copy OK
Track 4
Filename D:\zzz\04 - 2nd Conduction - Moving.wav
Peak level 82.7 %
Extraction speed 5.8 X
Track quality 100.0 %
Test CRC 1476E92B
Copy CRC 1476E92B
Track not present in AccurateRip database
Copy OK
Track 5
Filename D:\zzz\05 - Posaunetaurus Tanz.wav
Peak level 60.1 %
Extraction speed 7.8 X
Track quality 100.0 %
Test CRC 120C5013
Copy CRC 120C5013
Track not present in AccurateRip database
Copy OK
Track 6
Filename D:\zzz\06 - Minotaurus.wav
Pre-gap length 0:00:02.00
Peak level 79.6 %
Extraction speed 8.5 X
Track quality 100.0 %
Test CRC 384CC620
Copy CRC 384CC620
Track not present in AccurateRip database
Copy OK
Track 7
Filename D:\zzz\07 - Il Mitonauta.wav
Pre-gap length 0:00:02.00
Peak level 100.0 %
Extraction speed 9.6 X
Track quality 100.0 %
Test CRC A472AAEB
Copy CRC A472AAEB
Track not present in AccurateRip database
Copy OK
Track 8
Filename D:\zzz\08 - 3rd Conduction - Awakening.wav
Peak level 81.4 %
Extraction speed 8.2 X
Track quality 99.9 %
Test CRC 39C91B8D
Copy CRC 39C91B8D
Track not present in AccurateRip database
Copy OK
None of the tracks are present in the AccurateRip database
No errors occurred
End of status report
==== Log checksum D07577208F36B38AAC59B70005D8462150F9B21BF4FD99AC54262D52EBC71ADB ====
 
Содержание индексной карты (.CUE)
REM GENRE "Big Band"
REM DATE 2001
REM DISCID 5C110D08
REM COMMENT "ExactAudioCopy v1.0b3"
PERFORMER "Dolmen Orchestra"
TITLE "Minotrauma"
FILE "01 - 1st Conduction - Opening.wav" WAVE
TRACK 01 AUDIO
TITLE "1st Conduction - Opening"
PERFORMER "Dolmen Orchestra"
INDEX 01 00:00:00
FILE "02 - ...Del Minotauro.wav" WAVE
TRACK 02 AUDIO
TITLE "...Del Minotauro"
PERFORMER "Dolmen Orchestra"
INDEX 01 00:00:00
FILE "03 - He Was In A World.wav" WAVE
TRACK 03 AUDIO
TITLE "He Was In A World"
PERFORMER "Dolmen Orchestra"
INDEX 01 00:00:00
FILE "04 - 2nd Conduction - Moving.wav" WAVE
TRACK 04 AUDIO
TITLE "2nd Conduction - Moving"
PERFORMER "Dolmen Orchestra"
INDEX 01 00:00:00
FILE "05 - Posaunetaurus Tanz.wav" WAVE
TRACK 05 AUDIO
TITLE "Posaunetaurus Tanz"
PERFORMER "Dolmen Orchestra"
INDEX 01 00:00:00
TRACK 06 AUDIO
TITLE "Minotaurus"
PERFORMER "Dolmen Orchestra"
INDEX 00 14:59:47
FILE "06 - Minotaurus.wav" WAVE
INDEX 01 00:00:00
TRACK 07 AUDIO
TITLE "Il Mitonauta"
PERFORMER "Dolmen Orchestra"
INDEX 00 11:38:41
FILE "07 - Il Mitonauta.wav" WAVE
INDEX 01 00:00:00
FILE "08 - 3rd Conduction - Awakening.wav" WAVE
TRACK 08 AUDIO
TITLE "3rd Conduction - Awakening"
PERFORMER "Dolmen Orchestra"
INDEX 01 00:00:00
 
Лог проверки качества
d:\>d:\aucdtect -d/-m0 d:\zzz\*.wav
auCDtect: CD records authenticity detector, version 0.8.2
Copyright (c) 2004 Oleg Berngardt. All rights reserved.
Copyright (c) 2004 Alexander Djourik. All rights reserved.
------------------------------------------------------------
Processing file: [01. 1st Conduction - Opening.wav]
------------------------------------------------------------
This track looks like CDDA with probability 100%
------------------------------------------------------------
Processing file: [02. ...Del Minotauro.wav]
------------------------------------------------------------
This track looks like CDDA with probability 100%
------------------------------------------------------------
Processing file: [03. He Was In A World.wav]
------------------------------------------------------------
This track looks like CDDA with probability 100%
------------------------------------------------------------
Processing file: [04. 2nd Conduction - Moving.wav]
------------------------------------------------------------
This track looks like CDDA with probability 100%
------------------------------------------------------------
Processing file: [05. Posaunetaurus Tanz.wav]
------------------------------------------------------------
This track looks like CDDA with probability 100%
------------------------------------------------------------
Processing file: [06. Minotaurus.wav]
------------------------------------------------------------
This track looks like CDDA with probability 100%
------------------------------------------------------------
Processing file: [07. Il Mitonauta.wav]
------------------------------------------------------------
This track looks like CDDA with probability 100%
------------------------------------------------------------
Processing file: [08. 3rd Conduction - Awakening.wav]
------------------------------------------------------------
This track looks like CDDA with probability 100%
------------------------------------------------------------
Final Conclusion:
------------------------------------------------------------
These tracks looks like CDDA with probability 100%
Доп. информация:
 
Album Info & AMG Review
(Nicola Pisani) - 1,4,7,8
(Antonio Dambrosio) - 2
(Vittorio Gallo) - 3
(Claudio Lugo) - 5
(Gianni Lenoci) - 6
Recording (live - no overdubs, except effects on 5): Bari, "Niccolo Piccinni" Conservatory Of Music, March 24th and 25th 2001, by Piero Schiavoni
Editing and mixing: Rome, "Studio Coltempo", April 18th, 19th, 20th and 21st 2001, by Piero Schiavoni, Nicola Pisani, Aldo Bagnoni, Antonio Dambrosio and Claudio Lugo
Photos by Gianni Cataldi
Graphic concept by Pino Colonna
Cover art by Pino Colonna and Nino Perrone
Liner notes: Gerard Rouy, Aldo Bagnoni
Produced by MIA, Jazz e Altro/Oltre il Jazz International Festival, Aldo Bagnoni and Leo Feigin
This is the second recording on Leo Records of the highly regarded Dolmen Orchestra from southern Italy. Like its predecessor, Sequenze Armoniche (Some Gregorian Reflections), this one is characterized by strong, serious writing, excellent soloing, and a diversity of styles. Minotrauma is distinguished, too, by the presence of guest French trombonist Yves Robert, who is featured throughout. Robert, who sits in the top tier worldwide of modern stylists on his instrument, is clearly indebted to the seminal work of American trombonist, George Lewis, and the Frenchman adds immeasurably to the success of the instant project with his remarkably fluent performances. Three of the tracks are "conductions," a methodology of free composition first pioneered by Lawrence "Butch" Morris. The others weave in and out of melodic frameworks, sometimes sounding relatively tame, and at others exploring more adventurous terrain. Leader and organizer Nicola Pisani conducts most of the pieces and contributed several of them. The orchestra is a tight unit, with complex, layered arrangements, and if it lacks some of the humor indigenous to its sister and better-known Italian Instabile Ensemble, the Dolmen Orchestra manages to find its own, slightly more rigid, though equally artistic, sound. Cristina Zavalloni's voice is a constant presence, often mimicking a horn. Whether she adds or detracts form the end result is a matter of taste. Those who enjoy George Lewis' work with the Now Orchestra (for example, The Shadowgraph Series: Compositions for Creative Orchestra) should appreciate this project and find it challenging and largely fulfilling.
 
Состав
Cristina Zavalloni: singing and reciting voice, shaker (on 7)
Nicola Pisani: direction (except 5), soprano sax (on 5)
Claudio Lugo: direction (on 5), alto sax (on 3 and all conductions), soprano sax (first solo on 6)
Vittorio Gallo: tenor & soprano sax (second solo on 6)
Felice Mezzina: tenor & alto sax (solo on 7)
Achille Succi: bass & Bb clarinets (soloist on 2 & 7)
Marco Sannini: trumpet & flugelhorn (solo on 7)
Alfredo Sette: trumpet
Franco Anguilo: trombone
Giuseppe Savino: trombone & bass trombone
Nuccio Trotta: tuba
Gianni Lenoci: piano, prepared piano and synthesizer (soloist on 5,6 & 7)
Giorgio Vendola: double bass (soloist on 6 & 7)
Antonio Dambrosio: drums and percussions (glockenspiel, bass drum) - left channel
Aldo Bagnoni: drums and percussions (darbouka, tambourine, shaker, cymbals (mallets), blocks, cowbells, chimes etc.) - right channel
Special guest: Yves Robert: trombone (all solos)
on 3: all orchestra: bird calls, objects, etc.
on 5: Andrea Ceccon: male reciting voice
Claudio Lugo: samples
All orchestra: voices and "cicadas" effects
on 4 & 8: Gaetano Santoro: alto sax added
Any questions -> support@pro-jazz.com. По всем вопросам пишите -> support@pro-jazz.com
21:15
164
Нет комментариев. Ваш будет первым!