Вы используете незарегистрированную версию компонента "Вкладки"!

Поиск

(Free Jazz,Contemporary Jazz, Free Improvisation) [CD] Ballrogg (Klaus Ellerhusen Holm, Roger Arntzen, Ivar Grydeland) - Insomnia - 25 Jan 2010, FLAC (image+.cue), lossless

(Free Jazz,Contemporary Jazz, Free Improvisation) [CD] Ballrogg (Klaus Ellerhusen Holm, Roger Arntzen, Ivar Grydeland) - Insomnia - 25 Jan 2010, FLAC (image+.cue), lossless
Треклист:
Ballrogg - Insomnia
Жанр: Free Jazz, Contemporary Jazz, Free Improvisation
Носитель: CD
Страна-производитель диска: Norway
Год издания: 25 Jan 2010
Издатель (лейбл): Bolage
Номер по каталогу: BLGCD010
Страна: Norway
Аудиокодек: FLAC (*.flac)
Тип рипа: image+.cue
Битрейт аудио: lossless
Продолжительность: 00:39:58
Источник (релизер): Собственный рип
Наличие сканов в содержимом раздачи: нет
Треклист:
  1. N.R.E.M. (5:45)
  2. Woody Creek (5:01)
  3. Sleepwalker (6:00)
  4. Georgetown Suites (3:45)
  5. Monkeytown (5:40)
  6. Sort Of Patterns In A Chromatic Field (4:28)
  7. Insomnia (5:41)
  8. Kampenhaug (3:39)
Доп. информация:
Musicians:
Alto Saxophone, Clarinet [B-clarinet], Electronics [Feedback Amplification] – Klaus Ellerhusen Holm
Double Bass – Roger Arntzen
Edited By, Mixed By, Recorded By – Ingar Hunskaar
Executive-Producer – Håvard Stubø, Tord Rønning Krogtoft
Mastered By – Claes Persson
Producer – Klaus Ellerhusen Holm, Roger Arntzen
Written-By – Klaus Ellerhusen Holm (tracks: 1 to 5, 8)
Recorded at Bakkehaugen kirke and Diktafon studio, August and September 2009.
 
Содержание индексной карты (.CUE)
REM GENRE "Free Jazz"
REM DATE 2010
REM DISCID 57095E08
REM COMMENT "ExactAudioCopy v1.0b3"
PERFORMER "Ballrogg"
TITLE "Insomnia"
FILE "Ballrogg - Insomnia.flac" WAVE
TRACK 01 AUDIO
TITLE "N.R.E.M."
PERFORMER "Ballrogg"
INDEX 01 00:00:00
TRACK 02 AUDIO
TITLE "Woody Creek"
PERFORMER "Ballrogg"
INDEX 00 05:42:24
INDEX 01 05:44:67
TRACK 03 AUDIO
TITLE "Sleepwalker"
PERFORMER "Ballrogg"
INDEX 00 10:43:00
INDEX 01 10:45:41
TRACK 04 AUDIO
TITLE "Georgetown Suites"
PERFORMER "Ballrogg"
INDEX 00 16:41:37
INDEX 01 16:45:05
TRACK 05 AUDIO
TITLE "Monkeytown"
PERFORMER "Ballrogg"
INDEX 00 20:26:18
INDEX 01 20:29:60
TRACK 06 AUDIO
TITLE "Sort Of Patterns In A Chromatic Field"
PERFORMER "Ballrogg"
INDEX 00 26:06:37
INDEX 01 26:10:05
TRACK 07 AUDIO
TITLE "Insomnia"
PERFORMER "Ballrogg"
INDEX 00 30:34:40
INDEX 01 30:38:07
TRACK 08 AUDIO
TITLE "Kampenhaug"
PERFORMER "Ballrogg"
INDEX 00 36:16:34
INDEX 01 36:19:02
 
Отчёт EAC
Exact Audio Copy V1.0 beta 3 from 29. August 2011
Отчёт EAC об извлечении, выполненном 7. декабря 2013, 0:58
Ballrogg / Insomnia
Дисковод: HL-DT-STDVDRAM GSA-T50N Adapter: 1 ID: 0
Режим чтения : Достоверность
Использование точного потока : Да
Отключение кэша аудио : Да
Использование указателей C2 : Нет
Коррекция смещения при чтении : 667
Способность читать области Lead-in и Lead-out : Нет
Заполнение пропущенных сэмплов тишиной : Да
Удаление блоков с тишиной в начале и конце : Нет
При вычислениях CRC использовались нулевые сэмплы : Да
Интерфейс : Установленный внешний ASPI-интерфейс
Выходной формат : Пользовательский кодировщик
Выбранный битрейт : 1024 kBit/s
Качество : Высокий
Добавление ID3-тега : Нет
Утилита сжатия : C:\Program Files\Exact Audio Copy\Flac\flac.exe
Дополнительные параметры : -V -8 -T "Date=%year%" -T "Genre=%genre%" %source%
TOC извлечённого CD
Трек | Старт | Длительность | Начальный сектор | Конечный сектор
---------------------------------------------------------------------
1 | 0:00.00 | 5:44.67 | 0 | 25866
2 | 5:44.67 | 5:00.49 | 25867 | 48415
3 | 10:45.41 | 5:59.39 | 48416 | 75379
4 | 16:45.05 | 3:44.55 | 75380 | 92234
5 | 20:29.60 | 5:40.20 | 92235 | 117754
6 | 26:10.05 | 4:28.02 | 117755 | 137856
7 | 30:38.07 | 5:40.70 | 137857 | 163426
8 | 36:19.02 | 3:39.03 | 163427 | 179854
Характеристики диапазона извлечения и сообщения об ошибках
Выбранный диапазон
Имя файла F:\sound\Ballrogg - Insomnia (2010)\Ballrogg - Insomnia.wav
Пиковый уровень 98.8 %
Скорость извлечения 3.7 X
Качество диапазона 99.9 %
CRC теста D99CEE78
CRC копии D99CEE78
Копирование... OK
Ошибок не произошло
AccurateRip: сводка
Трек 1 : извлечено точно (доверие 1) [4A38ADDE] (AR v2)
Трек 2 : извлечено точно (доверие 1) [C4ED9BA6] (AR v2)
Трек 3 : извлечено точно (доверие 1) [2403579F] (AR v2)
Трек 4 : извлечено точно (доверие 1) [5445A4CF] (AR v2)
Трек 5 : извлечено точно (доверие 1) [54DD9584] (AR v2)
Трек 6 : извлечено точно (доверие 1) [761CEBE2] (AR v2)
Трек 7 : извлечено точно (доверие 1) [65845CF1] (AR v2)
Трек 8 : извлечено точно (доверие 1) [FA7727AF] (AR v2)
Все треки извлечены точно
Конец отчёта
==== Контрольная сумма отчёта DB9394B25DD03798BFAEF0000C43DE2831C241ADD645DC116A1DFC0A720CCA57 ====
 
Об альбоме (сборнике)
Ballrogg - Insomnia chicagoreader.com
Ballrogg - Insomnia allaboutjazz.com
Any questions -> support@pro-jazz.com. По всем вопросам пишите -> support@pro-jazz.com
21:14
140
Нет комментариев. Ваш будет первым!