Вы используете незарегистрированную версию компонента "Вкладки"!

Поиск

(Avant-Garde Jazz/Jazz-Rock) [CD] Led Bib - Live - 2007, FLAC (tracks+.cue), lossless

(Avant-Garde Jazz/Jazz-Rock) [CD] Led Bib - Live - 2007, FLAC (tracks+.cue), lossless
Треклист:
Led Bib - Live
Жанр: Avant-Garde Jazz/Jazz-Rock
Носитель: CD
Страна-производитель диска: Великобритания
Год издания: 2007
Издатель (лейбл): Babel Label
Номер по каталогу: BDV2770
Страна: Великобритания
Аудиокодек: FLAC (*.flac)
Тип рипа: tracks+.cue
Битрейт аудио: lossless
Продолжительность: 35:56
Источник (релизер): Собственный CD
Наличие сканов в содержимом раздачи: да
Треклист:
01. Flashing Indicator
02. Work Prospects
03. Stinging Nettle
04. Memories Can't Wait
Концертный мини-альбом, выпущенный ограниченным тиражом в 1000 экземпляров.
 
Лог создания рипа
Exact Audio Copy V1.0 beta 3 from 29. August 2011
EAC extraction logfile from 6. December 2013, 21:26
Led Bib / Live
Used drive : TSSTcorpCDDVDW SH-224BB Adapter: 1 ID: 0
Read mode : Secure
Utilize accurate stream : Yes
Defeat audio cache : Yes
Make use of C2 pointers : No
Read offset correction : 6
Overread into Lead-In and Lead-Out : No
Fill up missing offset samples with silence : Yes
Delete leading and trailing silent blocks : No
Null samples used in CRC calculations : Yes
Used interface : Native Win32 interface for Win NT & 2000
Gap handling : Appended to previous track
Used output format : User Defined Encoder
Selected bitrate : 128 kBit/s
Quality : High
Add ID3 tag : No
Command line compressor : C:\Program Files (x86)\Exact Audio Copy\Flac\flac.exe
Additional command line options : -V -8 -T "Genre=%genre%" -T "Artist=%artist%" -T "Title=%title%" -T "Album=%albumtitle%" -T "Date=%year%" -T "Tracknumber=%tracknr%" -T "Comment=%comment%" %source%
TOC of the extracted CD
Track | Start | Length | Start sector | End sector
---------------------------------------------------------
1 | 0:00.00 | 6:34.73 | 0 | 29622
2 | 6:34.73 | 10:02.70 | 29623 | 74842
3 | 16:37.68 | 7:08.00 | 74843 | 106942
4 | 23:45.68 | 12:10.37 | 106943 | 161729
Track 1
Filename D:\!Torrent upload\Led Bib - Live (2007) [FLAC]\01. Flashing Indicator.wav
Pre-gap length 0:00:02.00
Peak level 100.0 %
Extraction speed 1.9 X
Track quality 100.0 %
Test CRC 3A434680
Copy CRC 3A434680
Accurately ripped (confidence 2) [6069A2C9] (AR v2)
Copy OK
Track 2
Filename D:\!Torrent upload\Led Bib - Live (2007) [FLAC]\02. Work Prospects.wav
Peak level 100.0 %
Extraction speed 2.2 X
Track quality 99.9 %
Test CRC D52125AB
Copy CRC D52125AB
Accurately ripped (confidence 2) [A1B1B20A] (AR v2)
Copy OK
Track 3
Filename D:\!Torrent upload\Led Bib - Live (2007) [FLAC]\03. Stinging Nettle.wav
Peak level 100.0 %
Extraction speed 2.6 X
Track quality 100.0 %
Test CRC F7B3F5D9
Copy CRC F7B3F5D9
Accurately ripped (confidence 2) [916538CB] (AR v2)
Copy OK
Track 4
Filename D:\!Torrent upload\Led Bib - Live (2007) [FLAC]\04. Memories Can't Wait.wav
Peak level 100.0 %
Extraction speed 3.1 X
Track quality 100.0 %
Test CRC 57F177A3
Copy CRC 57F177A3
Accurately ripped (confidence 2) [1D769179] (AR v2)
Copy OK
All tracks accurately ripped
No errors occurred
End of status report
==== Log checksum 9DE255A9B235A6AB332C63E9DA15283FAC38D2818DD3FBFC48DCD938981C565F ====
 
Содержание индексной карты (.CUE)
REM GENRE Jazz
REM DATE 2007
REM DISCID 3D086C04
REM COMMENT "ExactAudioCopy v1.0b3"
PERFORMER "Led Bib"
TITLE "Live"
FILE "01. Flashing Indicator.wav" WAVE
TRACK 01 AUDIO
TITLE "Flashing Indicator"
PERFORMER "Led Bib"
INDEX 01 00:00:00
FILE "02. Work Prospects.wav" WAVE
TRACK 02 AUDIO
TITLE "Work Prospects"
PERFORMER "Led Bib"
INDEX 01 00:00:00
FILE "03. Stinging Nettle.wav" WAVE
TRACK 03 AUDIO
TITLE "Stinging Nettle"
PERFORMER "Led Bib"
INDEX 01 00:00:00
FILE "04. Memories Can't Wait.wav" WAVE
TRACK 04 AUDIO
TITLE "Memories Can't Wait"
PERFORMER "Led Bib"
INDEX 01 00:00:00
 
Состав
Mark Holub - Drums
Liran Donin - Bass
Toby McLaren - Fender Rhodes
Pete Grogan - Alto Saxophone
Chris Williams - Alto Saxophone
Any questions -> support@pro-jazz.com. По всем вопросам пишите -> support@pro-jazz.com
21:13
146
Нет комментариев. Ваш будет первым!