Вы используете незарегистрированную версию компонента "Вкладки"!

Поиск

(Avant-Garde Jazz, Big Band) [CD] Aardvark Jazz Orchestra - American Agonistes - 2007, FLAC (tracks+.cue), lossless

(Avant-Garde Jazz, Big Band) [CD] Aardvark Jazz Orchestra - American Agonistes - 2007, FLAC (tracks+.cue), lossless
Треклист:
Aardvark Jazz Orchestra / American Agonistes
Жанр: Avant-Garde Jazz, Big Band
Носитель: CD
Страна-производитель диска: UK
Год издания: 2007
Издатель (лейбл): Leo Records
Номер по каталогу: CD LR 508
Страна: US
Аудиокодек: FLAC (*.flac)
Тип рипа: tracks+.cue
Битрейт аудио: lossless
Продолжительность: 67:01
Источник (релизер): свой фирменный диск
Наличие сканов в содержимом раздачи:
Треклист:
1. Blood On The Sun 8:12
2. New Moon Rising 9:39
FALLEN TRUTH
3. One Thing And Another 17:53
4. Big Oil Tango 9:50
5. The Prevaricator 11:56
6. Theocracy In America 5:13
7. Sounding Peace 4:08
 
Лог создания рипа
Exact Audio Copy V1.0 beta 3 from 29. August 2011
EAC extraction logfile from 1. December 2013, 23:35
Aardvark Jazz Orchestra / American Agonistes
Used drive : PIONEER DVD-RW DVR-115D Adapter: 0 ID: 0
Read mode : Secure
Utilize accurate stream : Yes
Defeat audio cache : Yes
Make use of C2 pointers : No
Read offset correction : 48
Overread into Lead-In and Lead-Out : No
Fill up missing offset samples with silence : Yes
Delete leading and trailing silent blocks : No
Null samples used in CRC calculations : Yes
Used interface : Installed external ASPI interface
Gap handling : Appended to previous track
Used output format : User Defined Encoder
Selected bitrate : 896 kBit/s
Quality : High
Add ID3 tag : No
Command line compressor : C:\Program Files\Exact Audio Copy\FLAC\FLAC.EXE
Additional command line options : -6 -V -T "ARTIST=%artist%" -T "TITLE=%title%" -T "ALBUM=%albumtitle%" -T "DATE=%year%" -T "TRACKNUMBER=%tracknr%" -T "GENRE=%genre%" -T "COMMENT=%comment%" -T "BAND=%albuminterpret%" -T "COMPOSER=%composer%" %haslyrics%--tag-from-file=LYRICS="%lyricsfile%"%haslyrics% -T "DISCNUMBER=%cdnumber%" -T "TOTALDISCS=%totalcds%" -T "TOTALTRACKS=%numtracks%" %hascover%--picture="%coverfile%"%hascover% %source% -o %dest%
TOC of the extracted CD
Track | Start | Length | Start sector | End sector
---------------------------------------------------------
1 | 0:00.00 | 8:12.67 | 0 | 36966
2 | 8:12.67 | 9:43.45 | 36967 | 80736
3 | 17:56.37 | 17:52.53 | 80737 | 161189
4 | 35:49.15 | 9:50.20 | 161190 | 205459
5 | 45:39.35 | 11:55.45 | 205460 | 259129
6 | 57:35.05 | 5:17.70 | 259130 | 282974
7 | 62:53.00 | 4:08.10 | 282975 | 301584
Track 1
Filename D:\zzz\01 - Blood on the Sun.wav
Pre-gap length 0:00:02.00
Peak level 97.2 %
Extraction speed 4.8 X
Track quality 100.0 %
Test CRC F39ADF6A
Copy CRC F39ADF6A
Track not present in AccurateRip database
Copy OK
Track 2
Filename D:\zzz\02 - New Moon Rising.wav
Peak level 55.8 %
Extraction speed 5.8 X
Track quality 100.0 %
Test CRC 46403381
Copy CRC 46403381
Track not present in AccurateRip database
Copy OK
Track 3
Filename D:\zzz\03 - Fallen Truth - One Thing And Another.wav
Pre-gap length 0:00:04.22
Peak level 90.6 %
Extraction speed 6.8 X
Track quality 99.9 %
Test CRC 93A4F4F0
Copy CRC 93A4F4F0
Track not present in AccurateRip database
Copy OK
Track 4
Filename D:\zzz\04 - Fallen Truth - Big Oil Tango.wav
Peak level 100.0 %
Extraction speed 7.4 X
Track quality 99.9 %
Test CRC 0795D0E6
Copy CRC 0795D0E6
Track not present in AccurateRip database
Copy OK
Track 5
Filename D:\zzz\05 - Fallen Truth - The Prevaricator.wav
Peak level 100.0 %
Extraction speed 8.5 X
Track quality 100.0 %
Test CRC 7CB75929
Copy CRC 7CB75929
Track not present in AccurateRip database
Copy OK
Track 6
Filename D:\zzz\06 - Fallen Truth - Theocracy In America.wav
Peak level 55.0 %
Extraction speed 8.4 X
Track quality 100.0 %
Test CRC 7D032CD2
Copy CRC 7D032CD2
Track not present in AccurateRip database
Copy OK
Track 7
Filename D:\zzz\07 - Sounding Peace.wav
Pre-gap length 0:00:04.00
Peak level 73.8 %
Extraction speed 8.3 X
Track quality 100.0 %
Test CRC 8705E168
Copy CRC 8705E168
Track not present in AccurateRip database
Copy OK
None of the tracks are present in the AccurateRip database
No errors occurred
End of status report
==== Log checksum EFC4D369E8E7EDB0E8603E15E0623DA2C90312DADA566F48A35887827B768D09 ====
 
Содержание индексной карты (.CUE)
REM GENRE "Avant-Garde Jazz"
REM DATE 2007
REM DISCID 630FB507
REM COMMENT "ExactAudioCopy v1.0b3"
PERFORMER "Aardvark Jazz Orchestra"
TITLE "American Agonistes"
FILE "01 - Blood on the Sun.wav" WAVE
TRACK 01 AUDIO
TITLE "Blood on the Sun"
PERFORMER "Aardvark Jazz Orchestra"
INDEX 01 00:00:00
FILE "02 - New Moon Rising.wav" WAVE
TRACK 02 AUDIO
TITLE "New Moon Rising"
PERFORMER "Aardvark Jazz Orchestra"
INDEX 01 00:00:00
TRACK 03 AUDIO
TITLE "Fallen Truth - One Thing And Another"
PERFORMER "Aardvark Jazz Orchestra"
INDEX 00 09:39:23
FILE "03 - Fallen Truth - One Thing And Another.wav" WAVE
INDEX 01 00:00:00
FILE "04 - Fallen Truth - Big Oil Tango.wav" WAVE
TRACK 04 AUDIO
TITLE "Fallen Truth - Big Oil Tango"
PERFORMER "Aardvark Jazz Orchestra"
INDEX 01 00:00:00
FILE "05 - Fallen Truth - The Prevaricator.wav" WAVE
TRACK 05 AUDIO
TITLE "Fallen Truth - The Prevaricator"
PERFORMER "Aardvark Jazz Orchestra"
INDEX 01 00:00:00
FILE "06 - Fallen Truth - Theocracy In America.wav" WAVE
TRACK 06 AUDIO
TITLE "Fallen Truth - Theocracy In America"
PERFORMER "Aardvark Jazz Orchestra"
INDEX 01 00:00:00
TRACK 07 AUDIO
TITLE "Sounding Peace"
PERFORMER "Aardvark Jazz Orchestra"
INDEX 00 05:13:70
FILE "07 - Sounding Peace.wav" WAVE
INDEX 01 00:00:00
 
Лог проверки качества
d:\>d:\aucdtect -d/-m0 d:\zzz\*.wav
auCDtect: CD records authenticity detector, version 0.8.2
Copyright (c) 2004 Oleg Berngardt. All rights reserved.
Copyright (c) 2004 Alexander Djourik. All rights reserved.
------------------------------------------------------------
Processing file: [01. Blood on the Sun.wav]
------------------------------------------------------------
This track looks like CDDA with probability 100%
------------------------------------------------------------
Processing file: [02. New Moon Rising.wav]
------------------------------------------------------------
This track looks like CDDA with probability 100%
------------------------------------------------------------
Processing file: [03. Fallen Truth - One Thing And Another.wav]
------------------------------------------------------------
This track looks like CDDA with probability 100%
------------------------------------------------------------
Processing file: [04. Fallen Truth - Big Oil Tango.wav]
------------------------------------------------------------
This track looks like CDDA with probability 100%
------------------------------------------------------------
Processing file: [05. Fallen Truth - The Prevaricator.wav]
------------------------------------------------------------
This track looks like CDDA with probability 100%
------------------------------------------------------------
Processing file: [06. Fallen Truth - Theocracy In America.wav]
------------------------------------------------------------
This track looks like CDDA with probability 99%
------------------------------------------------------------
Processing file: [07. Sounding Peace.wav]
------------------------------------------------------------
This track looks like CDDA with probability 99%
------------------------------------------------------------
Final Conclusion:
------------------------------------------------------------
These tracks looks like CDDA with probability 100%
Доп. информация:
 
Album Info & AMG Review
All compositions by Mark Harvey
Cover art by Kate Matson
Produced by Mark Harvey & Leo Feigin
Liner notes: Mark Harvey
1,2 recorded September 19, 2001 in Sanders Theater, Harvard University, Cambridge, MA by Myrna Johnson
3-6 recorded April 17, 2004 in Kresge Auditorium, MIT, Cambridge, MA by David Broderick
7. recorded July 16, 2007 in Killian Hall, MIT by Forrest Larson
They say tragedies bring out the best in people. In the case of Mark Harvey's Aardvark Jazz Orchestra, it might just be true. American Agonistes is an album of programmatic music inspired by 9/11 and the events that unfolded in its wake. It is also arguably the band's best album to date and certainly its most musically accessible. Through three works recorded between 2001 and 2007, Harvey offers a stunning hour of music that is, in turn, beautiful, poignant, and raucous. Avant-garde music always goes down better if there is a storyline involved. For neophytes, there is nothing like a picture or other direct tie to something known to make sense of the unknown (free improvisation, abstract musical gestures, etc.). In that regard, American Agonistes is an excellent place to start, but even avant-garde jazz connoisseurs will enjoy the raw emotion and refinement found in these pieces. First up is the diptych "Blood on the Sun/New Moon Rising," premiered and recorded only a week after the attack on the World Trade Center. Surely composed in haste, while the event was the event, this piece draws a graphic aural picture of the whole scene: the plane crashes, the crumbling towers, the desolation. A bit crude in the writing and delivery, it is nonetheless very poignant. "Fallen Truth" is a longer and much more developed piece in four movements, about the "politics of deception" that evolved from the 9/11 terrorist attack. Movement titles like "Big Oil Tango" and "Theocracy in America" should tell you two things already: on what side of the interpretive fence Harvey stands (the left side, that's right), and that this is not cheerful music. There is a lot going on here, big-band styles (swing, tango) alternating with contemporary music bits, angst-driven improvisation, and bleak dirges. Concluding the set, "Sounding Peace" offers a meager four minutes of low-register balladry, adding a hopeful yet somewhat somber (or is that realistic?) note. Programmatic music can be tacky -- sometimes it can feel like a first reader's book for the newcomer to contemporary music -- but American Agonistes is definitely not. This album drips with honesty, intelligence, sound design, and art. Wow, it reads like a list of everything the Bush administration has been lacking, doesn't it?
 
Состав
Music director/conductor & piano (1,2,3,6), trumpet (5,7): Mark Harvey
Saxophones & woodwinds:
Peter Bloom: as, fl, bass fl, picc
Arni Cheatham: as, fl
Mark Messier: bs, cl (1,2)
Phil Scarff: ts, sop, cl
Chris Rakowski: ts (3-7)
Daniel Ian Smith: ts, fl (1,2)
Dan Zupan: bs (7)
Trumpets: KC Dunbar, Taylor Ho Bynum, Jeanne Snodgrass
French horn: Dan Shaud (3-6)
Trombones/Tuba:
Jay Keyser: tbn
Bill Lowe: bs tbn, tba
Jeff Marsanskis: tbn, bs tbn
Bob Pilkington: tbn (1,2,7)
Tom Plsek: tbn (1,2)
Guitar: Larry Carsman (1,2), Richard Nelson (3-6)
String bass: John Funkhouser (3-7), Jesse Williams (1,2)
Electric bass: Jerry Edwards
Drums: Harry Wellott
Percussion: Craig Ellis
Vocalist: Donna Hewitt Didham (1)
Any questions -> support@pro-jazz.com. По всем вопросам пишите -> support@pro-jazz.com
21:17
158
Нет комментариев. Ваш будет первым!