Вы используете незарегистрированную версию компонента "Вкладки"!

Поиск

(Avant-Garde Jazz, Free Improvisation) [CD] Mark O'Leary, Stale Storlokken, Stein Inge Braekhus - St Fin Barre's - 2008, FLAC (tracks+.cue), lossless

(Avant-Garde Jazz, Free Improvisation) [CD] Mark O'Leary, Stale Storlokken, Stein Inge Braekhus - St Fin Barre's - 2008, FLAC (tracks+.cue), lossless
Треклист:
Mark O'Leary, Stale Storlokken, Stein Inge Braekhus / St Fin Barre's
Жанр: Avant-Garde Jazz, Free Improvisation
Носитель: CD
Страна-производитель диска: UK
Год издания: 2008
Издатель (лейбл): Leo Records
Номер по каталогу: CD LR 526
Страна: Ireland, Norway
Аудиокодек: FLAC (*.flac)
Тип рипа: tracks+.cue
Битрейт аудио: lossless
Продолжительность: 42:14
Источник (релизер): свой фирменный диск
Наличие сканов в содержимом раздачи:
Треклист:
1. Prologue 4:25
2. Evensong 6:59
3. Resurrection 7:23
4. Sanctuary 4:56
5. Trisagion 2:24
6. Antiphon 10:22
7. Epilogue 5:40
 
Лог создания рипа
Exact Audio Copy V1.0 beta 3 from 29. August 2011
EAC extraction logfile from 2. December 2013, 20:11
Mark O'Leary, Stale Storlokken, Stein Inge Braekhus / St Fin Barre's
Used drive : TSSTcorpCDDVDW SH-222AB Adapter: 1 ID: 0
Read mode : Secure
Utilize accurate stream : Yes
Defeat audio cache : Yes
Make use of C2 pointers : No
Read offset correction : 6
Overread into Lead-In and Lead-Out : No
Fill up missing offset samples with silence : Yes
Delete leading and trailing silent blocks : No
Null samples used in CRC calculations : Yes
Used interface : Installed external ASPI interface
Gap handling : Appended to previous track
Used output format : User Defined Encoder
Selected bitrate : 896 kBit/s
Quality : High
Add ID3 tag : No
Command line compressor : C:\Program Files\Exact Audio Copy\FLAC\FLAC.EXE
Additional command line options : -6 -V -T "ARTIST=%artist%" -T "TITLE=%title%" -T "ALBUM=%albumtitle%" -T "DATE=%year%" -T "TRACKNUMBER=%tracknr%" -T "GENRE=%genre%" -T "COMMENT=%comment%" -T "BAND=%albuminterpret%" -T "COMPOSER=%composer%" %haslyrics%--tag-from-file=LYRICS="%lyricsfile%"%haslyrics% -T "DISCNUMBER=%cdnumber%" -T "TOTALDISCS=%totalcds%" -T "TOTALTRACKS=%numtracks%" %hascover%--picture="%coverfile%"%hascover% %source% -o %dest%
TOC of the extracted CD
Track | Start | Length | Start sector | End sector
---------------------------------------------------------
1 | 0:00.00 | 4:24.69 | 0 | 19868
2 | 4:24.69 | 6:59.66 | 19869 | 51359
3 | 11:24.60 | 7:23.36 | 51360 | 84620
4 | 18:48.21 | 4:57.00 | 84621 | 106895
5 | 23:45.21 | 2:24.57 | 106896 | 117752
6 | 26:10.03 | 10:23.06 | 117753 | 164483
7 | 36:33.09 | 5:41.09 | 164484 | 190067
Track 1
Filename D:\zzz\01 - Prologue.wav
Pre-gap length 0:00:02.00
Peak level 89.9 %
Extraction speed 2.5 X
Track quality 99.9 %
Test CRC 05E17022
Copy CRC 05E17022
Accurately ripped (confidence 2) [537B3451] (AR v1)
Copy OK
Track 2
Filename D:\zzz\02 - Evensong.wav
Peak level 99.9 %
Extraction speed 2.9 X
Track quality 100.0 %
Test CRC A5DC0A15
Copy CRC A5DC0A15
Accurately ripped (confidence 2) [3E6FE2A3] (AR v1)
Copy OK
Track 3
Filename D:\zzz\03 - Resurrection.wav
Peak level 99.9 %
Extraction speed 2.9 X
Track quality 100.0 %
Test CRC 0AAFF5EC
Copy CRC 0AAFF5EC
Accurately ripped (confidence 1) [E64117EA] (AR v1)
Copy OK
Track 4
Filename D:\zzz\04 - Sanctuary.wav
Peak level 99.9 %
Extraction speed 2.8 X
Track quality 100.0 %
Test CRC 66739480
Copy CRC 66739480
Accurately ripped (confidence 1) [2683A2EB] (AR v1)
Copy OK
Track 5
Filename D:\zzz\05 - Trisagion.wav
Peak level 100.0 %
Extraction speed 2.0 X
Track quality 99.9 %
Test CRC A8955305
Copy CRC A8955305
Accurately ripped (confidence 1) [2FA92CC5] (AR v1)
Copy OK
Track 6
Filename D:\zzz\06 - Antiphon.wav
Peak level 99.9 %
Extraction speed 3.0 X
Track quality 100.0 %
Test CRC 67067881
Copy CRC 67067881
Accurately ripped (confidence 2) [1E9048BC] (AR v1)
Copy OK
Track 7
Filename D:\zzz\07 - Epilogue.wav
Peak level 99.9 %
Extraction speed 2.8 X
Track quality 100.0 %
Test CRC 60706C99
Copy CRC 60706C99
Accurately ripped (confidence 1) [0BE483BE] (AR v1)
Copy OK
All tracks accurately ripped
No errors occurred
End of status report
==== Log checksum 3A1D96DD7FE426D04CC7E441EE1F64861278AFE7F97E2B8EC44B8695CBC01792 ====
 
Содержание индексной карты (.CUE)
REM GENRE "Free Improvisation"
REM DATE 2008
REM DISCID 5709E607
REM COMMENT "ExactAudioCopy v1.0b3"
PERFORMER "Mark O'Leary, Stale Storlokken, Stein Inge Braekhus"
TITLE "St Fin Barre's"
FILE "01 - Prologue.wav" WAVE
TRACK 01 AUDIO
TITLE "Prologue"
PERFORMER "Mark O'Leary, Stale Storlokken, Stein Inge Braekhus"
INDEX 01 00:00:00
FILE "02 - Evensong.wav" WAVE
TRACK 02 AUDIO
TITLE "Evensong"
PERFORMER "Mark O'Leary, Stale Storlokken, Stein Inge Braekhus"
INDEX 01 00:00:00
FILE "03 - Resurrection.wav" WAVE
TRACK 03 AUDIO
TITLE "Resurrection"
PERFORMER "Mark O'Leary, Stale Storlokken, Stein Inge Braekhus"
INDEX 01 00:00:00
FILE "04 - Sanctuary.wav" WAVE
TRACK 04 AUDIO
TITLE "Sanctuary"
PERFORMER "Mark O'Leary, Stale Storlokken, Stein Inge Braekhus"
INDEX 01 00:00:00
FILE "05 - Trisagion.wav" WAVE
TRACK 05 AUDIO
TITLE "Trisagion"
PERFORMER "Mark O'Leary, Stale Storlokken, Stein Inge Braekhus"
INDEX 01 00:00:00
FILE "06 - Antiphon.wav" WAVE
TRACK 06 AUDIO
TITLE "Antiphon"
PERFORMER "Mark O'Leary, Stale Storlokken, Stein Inge Braekhus"
INDEX 01 00:00:00
FILE "07 - Epilogue.wav" WAVE
TRACK 07 AUDIO
TITLE "Epilogue"
PERFORMER "Mark O'Leary, Stale Storlokken, Stein Inge Braekhus"
INDEX 01 00:00:00
 
Лог проверки качества
d:\>d:\aucdtect -d/-m0 d:\zzz\*.wav
auCDtect: CD records authenticity detector, version 0.8.2
Copyright (c) 2004 Oleg Berngardt. All rights reserved.
Copyright (c) 2004 Alexander Djourik. All rights reserved.
------------------------------------------------------------
Processing file: [01. Prologue.wav]
------------------------------------------------------------
Could not qualify the source of this track.
------------------------------------------------------------
Processing file: [02. Evensong.wav]
------------------------------------------------------------
This track looks like MPEG with probability 100%
------------------------------------------------------------
Processing file: [03. Resurrection.wav]
------------------------------------------------------------
This track looks like MPEG with probability 100%
------------------------------------------------------------
Processing file: [04. Sanctuary.wav]
------------------------------------------------------------
This track looks like MPEG with probability 99%
------------------------------------------------------------
Processing file: [05. Trisagion.wav]
------------------------------------------------------------
This track looks like CDDA with probability 100%
------------------------------------------------------------
Processing file: [06. Antiphon.wav]
------------------------------------------------------------
This track looks like MPEG with probability 95%
------------------------------------------------------------
Processing file: [07. Epilogue.wav]
------------------------------------------------------------
This track looks like MPEG with probability 100%
------------------------------------------------------------
Final Conclusion:
------------------------------------------------------------
Could not qualify the source of these tracks.
Доп. информация:
 
Album Info & AMG Review
Music by Mark O'Leary, Stale Storlokken, Stein Inge Braekhus
Recorded live at St Fin Barre's Cathedral, Cork City, November 2002
Recording engineer Brian O'Reilly
Post production Donncha Moynihan, Hub Studio Cork
Edited by Harry Fulcher & Leo Feigin
Photos of Stale and Stein by Pat McArdle, of Mark by Andrea Bonino
Cathedral photo by Jon Beasley
Design by Lora Denis
Liner notes: Steve Day
Produced by Mark O'Leary & Leo Feigin
St. Fin Barre's is the cathedral of Cork City, guitarist Mark O'Leary's hometown. From the start, the title of this album -- his tenth release and tenth different trio lineup on Leo Records -- sets the stage for something different. Yes, St. Fin Barre's was recorded inside the cathedral. And yes, the recording venue had a huge influence on the music. Accompanying O'Leary are Supersilent keyboardist Ståle Storløkken at the church organ and percussionist Stein Inge Braekhus. The album opens with the ringing of the church bells signaling the beginning of the proceedings and Braekhus answering its call with thundering rolls, before O'Leary steps in with one of his most tender and introspective instant melodies, punctuated by delicate organ inserts and voicings. That four-minute piece sets the tone for the album, which will unfold over two extremes: meditation ("Evensong") and turmoil ("Epilogue"). Storløkken employs all the resources of the church organ, although he focuses more on its aerial textures than its bombast. And, while previous albums seemed built on a principle of equality between improvisers, as a whole this trio session leaves the spotlight more squarely on the guitarist, whose melodic volume-pedaled soloing is the main feature throughout. And in this particular case, it is not a bad thing, as St. Fin Barre's works strikingly well. Note that, in the sequence of O'Leary's releases for Leo Records, this one marks a step back in time, for the session was recorded in November 2002 but issued only in late 2008.
 
Состав
Mark O'Leary: guitar
Stale Storlokken: church organ
Stein Inge Braekhus: drums, percussion
Any questions -> support@pro-jazz.com. По всем вопросам пишите -> support@pro-jazz.com
21:18
165
Нет комментариев. Ваш будет первым!