Вы используете незарегистрированную версию компонента "Вкладки"!

Поиск

(Avant-Garde Jazz, Free Improvisation) [CD] Tim Trevor-Briscoe, Szilard Mezei, Nicola Guazzaloca - Underflow - 2011, FLAC (tracks+.cue), lossless

(Avant-Garde Jazz, Free Improvisation) [CD] Tim Trevor-Briscoe, Szilard Mezei, Nicola Guazzaloca - Underflow - 2011, FLAC (tracks+.cue), lossless
Треклист:
Tim Trevor-Briscoe, Szilard Mezei, Nicola Guazzaloca / Underflow
Жанр: Avant-Garde Jazz, Free Improvisation
Носитель: CD
Страна-производитель диска: UK
Год издания: 2011
Издатель (лейбл): Leo Records
Номер по каталогу: CD LR 614
Страна: UK, Serbia, Italy
Аудиокодек: FLAC (*.flac)
Тип рипа: tracks+.cue
Битрейт аудио: lossless
Продолжительность: 58:20
Источник (релизер): свой фирменный диск
Наличие сканов в содержимом раздачи:
Треклист:
1. Shoe Crabbing 5:45
2. Too Far From The Yew Tree 14:27
3. Perpangelus 5:50
4. Dog Flow (Live) 10:47
5. The Groaner (Live) 12:42
6. Fairgrind (Live) 8:35
 
Лог создания рипа
Exact Audio Copy V1.0 beta 3 from 29. August 2011
EAC extraction logfile from 3. December 2013, 17:26
Tim Trevor-Briscoe, Szilard Mezei, Nicola Guazzaloca / Underflow
Used drive : PIONEER DVD-RW DVR-115D Adapter: 0 ID: 0
Read mode : Secure
Utilize accurate stream : Yes
Defeat audio cache : Yes
Make use of C2 pointers : No
Read offset correction : 48
Overread into Lead-In and Lead-Out : No
Fill up missing offset samples with silence : Yes
Delete leading and trailing silent blocks : No
Null samples used in CRC calculations : Yes
Used interface : Installed external ASPI interface
Gap handling : Appended to previous track
Used output format : User Defined Encoder
Selected bitrate : 896 kBit/s
Quality : High
Add ID3 tag : No
Command line compressor : C:\Program Files\Exact Audio Copy\FLAC\FLAC.EXE
Additional command line options : -6 -V -T "ARTIST=%artist%" -T "TITLE=%title%" -T "ALBUM=%albumtitle%" -T "DATE=%year%" -T "TRACKNUMBER=%tracknr%" -T "GENRE=%genre%" -T "COMMENT=%comment%" -T "BAND=%albuminterpret%" -T "COMPOSER=%composer%" %haslyrics%--tag-from-file=LYRICS="%lyricsfile%"%haslyrics% -T "DISCNUMBER=%cdnumber%" -T "TOTALDISCS=%totalcds%" -T "TOTALTRACKS=%numtracks%" %hascover%--picture="%coverfile%"%hascover% %source% -o %dest%
TOC of the extracted CD
Track | Start | Length | Start sector | End sector
---------------------------------------------------------
1 | 0:00.00 | 5:49.07 | 0 | 26181
2 | 5:49.07 | 14:29.68 | 26182 | 91424
3 | 20:19.00 | 5:52.10 | 91425 | 117834
4 | 26:11.10 | 10:49.56 | 117835 | 166565
5 | 37:00.66 | 12:44.51 | 166566 | 223916
6 | 49:45.42 | 8:35.22 | 223917 | 262563
Track 1
Filename D:\zzz\01 - Shoe Crabbing.wav
Pre-gap length 0:00:02.00
Peak level 61.3 %
Extraction speed 4.5 X
Track quality 100.0 %
Test CRC E5ED8613
Copy CRC E5ED8613
Track not present in AccurateRip database
Copy OK
Track 2
Filename D:\zzz\02 - Too Far From The Yew Tree.wav
Pre-gap length 0:00:02.00
Peak level 94.1 %
Extraction speed 5.9 X
Track quality 100.0 %
Test CRC 4DA98810
Copy CRC 4DA98810
Track not present in AccurateRip database
Copy OK
Track 3
Filename D:\zzz\03 - Perpangelus.wav
Pre-gap length 0:00:02.00
Peak level 87.7 %
Extraction speed 6.5 X
Track quality 100.0 %
Test CRC 4BA40BF4
Copy CRC 4BA40BF4
Track not present in AccurateRip database
Copy OK
Track 4
Filename D:\zzz\04 - Dog Flow (Live).wav
Pre-gap length 0:00:02.00
Peak level 86.4 %
Extraction speed 7.0 X
Track quality 99.9 %
Test CRC BF517ADB
Copy CRC BF517ADB
Track not present in AccurateRip database
Copy OK
Track 5
Filename D:\zzz\05 - The Groaner (Live).wav
Pre-gap length 0:00:02.00
Peak level 98.8 %
Extraction speed 8.1 X
Track quality 100.0 %
Test CRC FF335817
Copy CRC FF335817
Track not present in AccurateRip database
Copy OK
Track 6
Filename D:\zzz\06 - Fairgrind (Live).wav
Pre-gap length 0:00:02.00
Peak level 98.1 %
Extraction speed 8.1 X
Track quality 99.9 %
Test CRC 7C04DE39
Copy CRC 7C04DE39
Track not present in AccurateRip database
Copy OK
None of the tracks are present in the AccurateRip database
No errors occurred
End of status report
==== Log checksum EDDDC4069E62643BD69E39C3E8EEE6A2AE5E8C37C845FFB38F51631681CE3F6B ====
 
Содержание индексной карты (.CUE)
REM GENRE "Free Improvisation"
REM DATE 2011
REM DISCID 430DAC06
REM COMMENT "ExactAudioCopy v1.0b3"
PERFORMER "Tim Trevor-Briscoe, Szilard Mezei, Nicola Guazzaloca"
TITLE "Underflow"
FILE "01 - Shoe Crabbing.wav" WAVE
TRACK 01 AUDIO
TITLE "Shoe Crabbing"
PERFORMER "Tim Trevor-Briscoe, Szilard Mezei, Nicola Guazzaloca"
FLAGS DCP
INDEX 01 00:00:00
TRACK 02 AUDIO
TITLE "Too Far From The Yew Tree"
PERFORMER "Tim Trevor-Briscoe, Szilard Mezei, Nicola Guazzaloca"
FLAGS DCP
INDEX 00 05:47:07
FILE "02 - Too Far From The Yew Tree.wav" WAVE
INDEX 01 00:00:00
TRACK 03 AUDIO
TITLE "Perpangelus"
PERFORMER "Tim Trevor-Briscoe, Szilard Mezei, Nicola Guazzaloca"
FLAGS DCP
INDEX 00 14:27:68
FILE "03 - Perpangelus.wav" WAVE
INDEX 01 00:00:00
TRACK 04 AUDIO
TITLE "Dog Flow (Live)"
PERFORMER "Tim Trevor-Briscoe, Szilard Mezei, Nicola Guazzaloca"
FLAGS DCP
INDEX 00 05:50:10
FILE "04 - Dog Flow (Live).wav" WAVE
INDEX 01 00:00:00
TRACK 05 AUDIO
TITLE "The Groaner (Live)"
PERFORMER "Tim Trevor-Briscoe, Szilard Mezei, Nicola Guazzaloca"
FLAGS DCP
INDEX 00 10:47:56
FILE "05 - The Groaner (Live).wav" WAVE
INDEX 01 00:00:00
TRACK 06 AUDIO
TITLE "Fairgrind (Live)"
PERFORMER "Tim Trevor-Briscoe, Szilard Mezei, Nicola Guazzaloca"
FLAGS DCP
INDEX 00 12:42:51
FILE "06 - Fairgrind (Live).wav" WAVE
INDEX 01 00:00:00
 
Лог проверки качества
d:\>d:\aucdtect -d/-m0 d:\zzz\*.wav
auCDtect: CD records authenticity detector, version 0.8.2
Copyright (c) 2004 Oleg Berngardt. All rights reserved.
Copyright (c) 2004 Alexander Djourik. All rights reserved.
------------------------------------------------------------
Processing file: [01. Shoe Crabbing.wav]
------------------------------------------------------------
This track looks like CDDA with probability 99%
------------------------------------------------------------
Processing file: [02. Too Far From The Yew Tree.wav]
------------------------------------------------------------
This track looks like CDDA with probability 100%
------------------------------------------------------------
Processing file: [03. Perpangelus.wav]
------------------------------------------------------------
This track looks like CDDA with probability 100%
------------------------------------------------------------
Processing file: [04. Dog Flow (Live).wav]
------------------------------------------------------------
This track looks like CDDA with probability 100%
------------------------------------------------------------
Processing file: [05. The Groaner (Live).wav]
------------------------------------------------------------
This track looks like CDDA with probability 100%
------------------------------------------------------------
Processing file: [06. Fairgrind (Live).wav]
------------------------------------------------------------
This track looks like CDDA with probability 100%
------------------------------------------------------------
Final Conclusion:
------------------------------------------------------------
These tracks looks like CDDA with probability 100%
Доп. информация:
 
Album Info & AMG Review
Music by Tim Trevor-Briscoe, Nicola Guazzaloca and Szilard Mezei
Produced by Tim Trevor-Briscoe, Nicola Guazzaloca, Szilard Mezei & Leo Feigin
Recorded on April 16, 2010 at Modulab - Casalecchio di Reno (studio session), and on April 17, 2010 at Scuola Popolare di Musica Ivan Illich - Bologna (live session)
Live session recorded by Nicola Guazzaloca - SPM Ivan Illich Research and Documentation Center
Editing and mastering by Szilard Mezei
Front cover drawing by Zoltan Bicskei
Artwork by Lora Denis
Musical interplay is a lot about dynamics, the energy flows, the changing levels of intensity and the currents that make musicians interact with each other. This trio, with Tim Trevor-Briscoe on saxophone, Szilárd Mezei on viola, and Nicola Guazzaloca on piano is almost all about dynamics.
The texture of their music is to be compared with pointillism, short, patternless dots of sound that cluster together to create an imagery that only becomes clear when looked at from a distance. The only images you get to see here are internal ones.
Have you ever watched long stems of grass moving in the wind, now unmoving, then suddenly all moving in the same direction by the invisible wind? Or have you watched long seaweed flowing under water, being softly moved then suddenly all weeds wave frantically together as a wave crashes overhead? Or have you wondered about the rapid joint movements of a flight of starlings?
Nothing happens, then suddenly something happens and everything happens, at breakneck speed all unconnected things moving together, as one, then back to rest.
This is how this music is. At first listening, the approach seemed pretty abstract and distant, and not easy to get into it, but now, after at least ten hours of listening, the beauty of the incredible dynamics of this excellent trio unfolds while remaining a mystery - all three move as one, soft-spoken, vulnerable, sensitive, then moving into dense, violent outbursts full of rage and volume, only to fall back to more gentle interactions.
Like the grass, the seaweeds and the starlings, you can only watch it happen, and admire its beauty and unexpected common movements, moved by something invisible, yet that is clearly there, must be there, because otherwise how could three move as one?
 
Состав
Tim Trevor-Briscoe: saxophone
Szilard Mezei: viola
Nicola Guazzaloca: piano
По всем вопросам пишите личное сообщение пользователю M0p94ok.
21:19
144
Нет комментариев. Ваш будет первым!