Вы используете незарегистрированную версию компонента "Вкладки"!

Поиск

(Avant-Garde Jazz/Jazz-Rock) [CD] Led Bib - Sizewell Tea - 2006, FLAC (tracks+.cue), lossless

(Avant-Garde Jazz/Jazz-Rock) [CD] Led Bib - Sizewell Tea - 2006, FLAC (tracks+.cue), lossless
Треклист:
Led Bib - Sizewell Tea
Жанр: Avant-Garde Jazz/Jazz-Rock
Носитель: CD
Страна-производитель диска: Великобритания
Год издания: 2006
Издатель (лейбл): Babel Label
Номер по каталогу: BDV2665
Страна: Великобритания
Аудиокодек: FLAC (*.flac)
Тип рипа: tracks+.cue
Битрейт аудио: lossless
Продолжительность: 01:04:22
Источник (релизер): Собственный CD
Наличие сканов в содержимом раздачи: да
Треклист:
00. Hidden Track
01. Stinging Nettle
02. Battery Power
03. Shower
04. Manifesto For The Future
05. Spring
06. The Keeper
07. Forest Fire
08. Chocky
09. Lichen
10. Heroes
 
Лог создания рипа
Exact Audio Copy V1.0 beta 3 from 29. August 2011
EAC extraction logfile from 7. December 2013, 1:04
Led Bib / Sizewell Tea
Used drive : TSSTcorpCDDVDW SH-224BB Adapter: 1 ID: 0
Read mode : Secure
Utilize accurate stream : Yes
Defeat audio cache : Yes
Make use of C2 pointers : No
Read offset correction : 6
Overread into Lead-In and Lead-Out : No
Fill up missing offset samples with silence : Yes
Delete leading and trailing silent blocks : No
Null samples used in CRC calculations : Yes
Used interface : Native Win32 interface for Win NT & 2000
Gap handling : Appended to previous track
Used output format : User Defined Encoder
Selected bitrate : 128 kBit/s
Quality : High
Add ID3 tag : No
Command line compressor : C:\Program Files (x86)\Exact Audio Copy\Flac\flac.exe
Additional command line options : -V -8 -T "Genre=%genre%" -T "Artist=%artist%" -T "Title=%title%" -T "Album=%albumtitle%" -T "Date=%year%" -T "Tracknumber=%tracknr%" -T "Comment=%comment%" %source%
TOC of the extracted CD
Track | Start | Length | Start sector | End sector
---------------------------------------------------------
1 | 0:22.43 | 4:57.25 | 1693 | 23992
2 | 5:19.68 | 5:36.28 | 23993 | 49220
3 | 10:56.21 | 4:10.16 | 49221 | 67986
4 | 15:06.37 | 4:41.23 | 67987 | 89084
5 | 19:47.60 | 5:25.42 | 89085 | 113501
6 | 25:13.27 | 6:31.19 | 113502 | 142845
7 | 31:44.46 | 7:58.18 | 142846 | 178713
8 | 39:42.64 | 10:03.47 | 178714 | 223985
9 | 49:46.36 | 6:19.38 | 223986 | 252448
10 | 56:05.74 | 8:16.17 | 252449 | 289665
Track 1
Filename D:\!Torrent upload\Led Bib - Sizewell Tea (2006) [FLAC]\01. Stinging Nettle.wav
Pre-gap length 0:00:24.43
Peak level 100.0 %
Extraction speed 2.1 X
Track quality 100.0 %
Test CRC 416609B7
Copy CRC 416609B7
Accurately ripped (confidence 3) [AC770B29] (AR v2)
Copy OK
Track 2
Filename D:\!Torrent upload\Led Bib - Sizewell Tea (2006) [FLAC]\02. Battery Power.wav
Pre-gap length 0:00:02.09
Peak level 100.0 %
Extraction speed 2.1 X
Track quality 100.0 %
Test CRC EFDC5143
Copy CRC EFDC5143
Accurately ripped (confidence 3) [5272DC63] (AR v2)
Copy OK
Track 3
Filename D:\!Torrent upload\Led Bib - Sizewell Tea (2006) [FLAC]\03. Shower.wav
Pre-gap length 0:00:03.08
Peak level 100.0 %
Extraction speed 2.0 X
Track quality 100.0 %
Test CRC 5D11E23E
Copy CRC 5D11E23E
Accurately ripped (confidence 3) [A2E09B65] (AR v2)
Copy OK
Track 4
Filename D:\!Torrent upload\Led Bib - Sizewell Tea (2006) [FLAC]\04. Manifesto For The Future.wav
Pre-gap length 0:00:06.42
Peak level 100.0 %
Extraction speed 2.1 X
Track quality 100.0 %
Test CRC D7090527
Copy CRC D7090527
Accurately ripped (confidence 3) [9A81074D] (AR v2)
Copy OK
Track 5
Filename D:\!Torrent upload\Led Bib - Sizewell Tea (2006) [FLAC]\05. Spring.wav
Pre-gap length 0:00:00.47
Peak level 100.0 %
Extraction speed 2.1 X
Track quality 100.0 %
Test CRC BBF2AEEC
Copy CRC BBF2AEEC
Accurately ripped (confidence 3) [7BBD6099] (AR v2)
Copy OK
Track 6
Filename D:\!Torrent upload\Led Bib - Sizewell Tea (2006) [FLAC]\06. The Keeper.wav
Pre-gap length 0:00:00.04
Peak level 100.0 %
Extraction speed 2.2 X
Track quality 100.0 %
Test CRC CB7707C2
Copy CRC CB7707C2
Accurately ripped (confidence 3) [846B5747] (AR v2)
Copy OK
Track 7
Filename D:\!Torrent upload\Led Bib - Sizewell Tea (2006) [FLAC]\07. Forest Fire.wav
Pre-gap length 0:00:02.01
Peak level 100.0 %
Extraction speed 2.2 X
Track quality 100.0 %
Test CRC 3805E9CF
Copy CRC 3805E9CF
Accurately ripped (confidence 3) [82536E3B] (AR v2)
Copy OK
Track 8
Filename D:\!Torrent upload\Led Bib - Sizewell Tea (2006) [FLAC]\08. Chocky.wav
Pre-gap length 0:00:14.52
Peak level 100.0 %
Extraction speed 2.2 X
Track quality 100.0 %
Test CRC D2CDB111
Copy CRC D2CDB111
Accurately ripped (confidence 3) [ABF0B489] (AR v2)
Copy OK
Track 9
Filename D:\!Torrent upload\Led Bib - Sizewell Tea (2006) [FLAC]\09. Lichen.wav
Pre-gap length 0:00:02.42
Peak level 100.0 %
Extraction speed 2.1 X
Track quality 100.0 %
Test CRC C6122E6B
Copy CRC C6122E6B
Accurately ripped (confidence 3) [618A6F9E] (AR v2)
Copy OK
Track 10
Filename D:\!Torrent upload\Led Bib - Sizewell Tea (2006) [FLAC]\10. Heroes.wav
Pre-gap length 0:00:21.35
Peak level 100.0 %
Extraction speed 2.2 X
Track quality 100.0 %
Test CRC E95EFB5F
Copy CRC E95EFB5F
Accurately ripped (confidence 2) [68DA98FC] (AR v2)
Copy OK
All tracks accurately ripped
No errors occurred
End of status report
==== Log checksum 8E685BEA1F957F4619ADABF2E6482545D1BCD1E49DF18AFBB165A917F6EEE037 ====
 
Лог рипа предзазора (нулевого трека)
Exact Audio Copy V1.0 beta 3 from 29. August 2011
EAC extraction logfile from 7. December 2013, 1:10
Led Bib / Sizewell Tea
Used drive : TSSTcorpCDDVDW SH-224BB Adapter: 1 ID: 0
Read mode : Secure
Utilize accurate stream : Yes
Defeat audio cache : Yes
Make use of C2 pointers : No
Read offset correction : 6
Overread into Lead-In and Lead-Out : No
Fill up missing offset samples with silence : Yes
Delete leading and trailing silent blocks : No
Null samples used in CRC calculations : Yes
Used interface : Native Win32 interface for Win NT & 2000
Used output format : Internal WAV Routines
Sample format : 44.100 Hz; 16 Bit; Stereo
TOC of the extracted CD
Track | Start | Length | Start sector | End sector
---------------------------------------------------------
1 | 0:22.43 | 4:57.25 | 1693 | 23992
2 | 5:19.68 | 5:36.28 | 23993 | 49220
3 | 10:56.21 | 4:10.16 | 49221 | 67986
4 | 15:06.37 | 4:41.23 | 67987 | 89084
5 | 19:47.60 | 5:25.42 | 89085 | 113501
6 | 25:13.27 | 6:31.19 | 113502 | 142845
7 | 31:44.46 | 7:58.18 | 142846 | 178713
8 | 39:42.64 | 10:03.47 | 178714 | 223985
9 | 49:46.36 | 6:19.38 | 223986 | 252448
10 | 56:05.74 | 8:16.17 | 252449 | 289665
Range status and errors
Selected range (Sectors 0-1692)
Filename D:\!Torrent upload\Led Bib - Sizewell Tea (2006) [FLAC]\Hidden Track.wav
Peak level 79.4 %
Extraction speed 0.4 X
Range quality 99.5 %
Copy CRC FBCDFDAC
Copy OK
No errors occurred
AccurateRip summary
No tracks could be verified as accurate
End of status report
==== Log checksum A3994DFDA165C90916D354381247C84D2B0327ED7C688159E01C3BAE2AEB820D ====
------------------------------------------------------------
Exact Audio Copy V1.0 beta 3 from 29. August 2011
EAC extraction logfile from 7. December 2013, 1:12
Led Bib / Sizewell Tea
Used drive : TSSTcorpCDDVDW SH-224BB Adapter: 1 ID: 0
Read mode : Secure
Utilize accurate stream : Yes
Defeat audio cache : Yes
Make use of C2 pointers : No
Read offset correction : 6
Overread into Lead-In and Lead-Out : No
Fill up missing offset samples with silence : Yes
Delete leading and trailing silent blocks : No
Null samples used in CRC calculations : Yes
Used interface : Native Win32 interface for Win NT & 2000
Used output format : User Defined Encoder
Selected bitrate : 128 kBit/s
Quality : High
Add ID3 tag : No
Command line compressor : C:\Program Files (x86)\Exact Audio Copy\Flac\flac.exe
Additional command line options : -V -8 -T "Genre=%genre%" -T "Artist=%artist%" -T "Title=%title%" -T "Album=%albumtitle%" -T "Date=%year%" -T "Tracknumber=%tracknr%" -T "Comment=%comment%" %source%
TOC of the extracted CD
Track | Start | Length | Start sector | End sector
---------------------------------------------------------
1 | 0:22.43 | 4:57.25 | 1693 | 23992
2 | 5:19.68 | 5:36.28 | 23993 | 49220
3 | 10:56.21 | 4:10.16 | 49221 | 67986
4 | 15:06.37 | 4:41.23 | 67987 | 89084
5 | 19:47.60 | 5:25.42 | 89085 | 113501
6 | 25:13.27 | 6:31.19 | 113502 | 142845
7 | 31:44.46 | 7:58.18 | 142846 | 178713
8 | 39:42.64 | 10:03.47 | 178714 | 223985
9 | 49:46.36 | 6:19.38 | 223986 | 252448
10 | 56:05.74 | 8:16.17 | 252449 | 289665
Range status and errors
Selected range (Sectors 0-1692)
Filename D:\!Torrent upload\Led Bib - Sizewell Tea (2006) [FLAC]\Hidden Track.wav
Peak level 79.4 %
Extraction speed 0.4 X
Range quality 99.5 %
Copy CRC FBCDFDAC
Copy OK
No errors occurred
AccurateRip summary
No tracks could be verified as accurate
End of status report
==== Log checksum 037D62DAEE8DEDB10A9925B04A642FD092701B2E8C301FF97E401B6F884DA787 ====
 
Содержание индексной карты (.CUE)
REM GENRE Jazz
REM DATE 2006
REM DISCID 9E0F000A
REM COMMENT "ExactAudioCopy v1.0b3"
PERFORMER "Led Bib"
TITLE "Sizewell Tea"
FILE "00. Hidden Track.wav" WAVE
TRACK 01 AUDIO
TITLE "Stinging Nettle"
PERFORMER "Led Bib"
INDEX 00 00:00:00
FILE "01. Stinging Nettle.wav" WAVE
INDEX 01 00:00:00
TRACK 02 AUDIO
TITLE "Battery Power"
PERFORMER "Led Bib"
INDEX 00 04:55:16
FILE "02. Battery Power.wav" WAVE
INDEX 01 00:00:00
TRACK 03 AUDIO
TITLE "Shower"
PERFORMER "Led Bib"
INDEX 00 05:33:20
FILE "03. Shower.wav" WAVE
INDEX 01 00:00:00
TRACK 04 AUDIO
TITLE "Manifesto For The Future"
PERFORMER "Led Bib"
INDEX 00 04:03:49
FILE "04. Manifesto For The Future.wav" WAVE
INDEX 01 00:00:00
TRACK 05 AUDIO
TITLE "Spring"
PERFORMER "Led Bib"
INDEX 00 04:40:51
FILE "05. Spring.wav" WAVE
INDEX 01 00:00:00
TRACK 06 AUDIO
TITLE "The Keeper"
PERFORMER "Led Bib"
INDEX 00 05:25:38
FILE "06. The Keeper.wav" WAVE
INDEX 01 00:00:00
TRACK 07 AUDIO
TITLE "Forest Fire"
PERFORMER "Led Bib"
INDEX 00 06:29:18
FILE "07. Forest Fire.wav" WAVE
INDEX 01 00:00:00
TRACK 08 AUDIO
TITLE "Chocky"
PERFORMER "Led Bib"
INDEX 00 07:43:41
FILE "08. Chocky.wav" WAVE
INDEX 01 00:00:00
TRACK 09 AUDIO
TITLE "Lichen"
PERFORMER "Led Bib"
INDEX 00 10:01:05
FILE "09. Lichen.wav" WAVE
INDEX 01 00:00:00
TRACK 10 AUDIO
TITLE "Heroes"
PERFORMER "Led Bib"
INDEX 00 05:58:03
FILE "10. Heroes.wav" WAVE
INDEX 01 00:00:00
 
Скриншот проверки зазоров на тишину

 
Состав
Mark Holub - Drums
Liran Donin - Basses
Toby McLaren - Keyboards
Pete Grogan - Alto Saxophone
Chris Williams - Alto Saxophone
Any questions -> support@pro-jazz.com. По всем вопросам пишите -> support@pro-jazz.com
21:20
152
Нет комментариев. Ваш будет первым!