Вы используете незарегистрированную версию компонента "Вкладки"!

Поиск

(Free Jazz, Free Improvisation) [CD] Marcin Oles, Adam Pieronczyk, Bartlomiej Brat Oles - Gray Days - 2001, FLAC (tracks+.cue), lossless

(Free Jazz, Free Improvisation) [CD] Marcin Oles, Adam Pieronczyk, Bartlomiej Brat Oles - Gray Days - 2001, FLAC (tracks+.cue), lossless
Треклист:
Oleś / Pierończyk / Oleś - Gray Days
Жанр: Free Jazz, Free Improvisation
Носитель: CD
Страна-производитель диска (релиза): Poland
Год издания: 2001
Издатель (лейбл): Not Two Records
Номер по каталогу: MW 726-2
Аудиокодек: FLAC (*.flac)
Тип рипа: tracks+.cue
Битрейт аудио: lossless
Продолжительность: 61:35
Источник (релизер): cd
Наличие сканов в содержимом раздачи: нет
Треклист:
1. Efts 10:22
2. Menace 3:13
3. Brotherhood 13:06
4. French Friend 7:13
5. Fair Play 1:38
6. Gray Days 7:57
7. Drums Area 1:18
8. Landscape 3:08
9. Breathless 7:44
10. Cold Rain 5:56
 
Лог создания рипа
Exact Audio Copy V1.0 beta 3 from 29. August 2011
EAC extraction logfile from 12. April 2015, 9:37
Oles, Pieronczyk, Oles / Gray Days
Used drive : ASUS DRW-24F1ST a Adapter: 0 ID: 0
Read mode : Secure
Utilize accurate stream : Yes
Defeat audio cache : Yes
Make use of C2 pointers : No
Read offset correction : 6
Overread into Lead-In and Lead-Out : No
Fill up missing offset samples with silence : Yes
Delete leading and trailing silent blocks : No
Null samples used in CRC calculations : Yes
Used interface : Native Win32 interface for Win NT & 2000
Gap handling : Appended to previous track
Used output format : User Defined Encoder
Selected bitrate : 320 kBit/s
Quality : High
Add ID3 tag : No
Command line compressor : D:\Programs\Exact Audio Copy\Flac\flac.exe
Additional command line options : -V -8 -T "Genre=%genre%" -T "Artist=%artist%" -T "Title=%title%" -T "Album=%albumtitle%" -T "Date=%year%" -T "Tracknumber=%tracknr%" -T "Comment=%comment%" %source%
TOC of the extracted CD
Track | Start | Length | Start sector | End sector
---------------------------------------------------------
1 | 0:00.00 | 10:22.00 | 0 | 46649
2 | 10:22.00 | 3:13.47 | 46650 | 61171
3 | 13:35.47 | 13:06.00 | 61172 | 120121
4 | 26:41.47 | 7:12.33 | 120122 | 152554
5 | 33:54.05 | 1:38.06 | 152555 | 159910
6 | 35:32.11 | 7:57.00 | 159911 | 195685
7 | 43:29.11 | 1:18.00 | 195686 | 201535
8 | 44:47.11 | 3:08.00 | 201536 | 215635
9 | 47:55.11 | 7:44.00 | 215636 | 250435
10 | 55:39.11 | 5:56.16 | 250436 | 277151
Track 1
Filename D:\EAC\01 Efts.wav
Pre-gap length 0:00:02.00
Peak level 96.5 %
Extraction speed 5.3 X
Track quality 100.0 %
Test CRC 234D0FD6
Copy CRC 234D0FD6
Copy OK
Track 2
Filename D:\EAC\02 Menace.wav
Peak level 96.6 %
Extraction speed 5.4 X
Track quality 100.0 %
Test CRC B5931627
Copy CRC B5931627
Copy OK
Track 3
Filename D:\EAC\03 Brotherhood.wav
Peak level 96.6 %
Extraction speed 7.0 X
Track quality 100.0 %
Test CRC 51820379
Copy CRC 51820379
Copy OK
Track 4
Filename D:\EAC\04 French Friend.wav
Peak level 83.8 %
Extraction speed 7.5 X
Track quality 100.0 %
Test CRC 774CD9D9
Copy CRC 774CD9D9
Copy OK
Track 5
Filename D:\EAC\05 Fair Play.wav
Peak level 27.5 %
Extraction speed 6.1 X
Track quality 100.0 %
Test CRC 8FBC06C2
Copy CRC 8FBC06C2
Copy OK
Track 6
Filename D:\EAC\06 Gray Days.wav
Peak level 96.6 %
Extraction speed 8.2 X
Track quality 100.0 %
Test CRC 740D2566
Copy CRC 740D2566
Copy OK
Track 7
Filename D:\EAC\07 Drums Area.wav
Peak level 96.5 %
Extraction speed 4.6 X
Track quality 99.8 %
Test CRC 8852FBBA
Copy CRC 8852FBBA
Copy OK
Track 8
Filename D:\EAC\08 Landscape.wav
Peak level 54.9 %
Extraction speed 7.7 X
Track quality 100.0 %
Test CRC F34CF651
Copy CRC F34CF651
Copy OK
Track 9
Filename D:\EAC\09 Breathliss.wav
Peak level 96.6 %
Extraction speed 8.9 X
Track quality 100.0 %
Test CRC B19B9E49
Copy CRC B19B9E49
Copy OK
Track 10
Filename D:\EAC\10 Cold Rain.wav
Peak level 61.3 %
Extraction speed 8.3 X
Track quality 99.9 %
Test CRC 57B73307
Copy CRC 57B73307
Copy OK
No errors occurred
End of status report
==== Log checksum B5B3CCD521013B1E9AEF61D42921571B9367AAEE9AA4B53211FC73250525E906 ====
 
Содержание индексной карты (.CUE)
REM GENRE Jazz
REM DATE 2001
REM DISCID 830E6F0A
REM COMMENT "ExactAudioCopy v1.0b3"
PERFORMER "Oles, Pieronczyk, Oles"
TITLE "Gray Days"
FILE "01 Efts.wav" WAVE
TRACK 01 AUDIO
TITLE "Efts"
PERFORMER "Oles, Pieronczyk, Oles"
FLAGS DCP
INDEX 01 00:00:00
FILE "02 Menace.wav" WAVE
TRACK 02 AUDIO
TITLE "Menace"
PERFORMER "Oles, Pieronczyk, Oles"
FLAGS DCP
INDEX 01 00:00:00
FILE "03 Brotherhood.wav" WAVE
TRACK 03 AUDIO
TITLE "Brotherhood"
PERFORMER "Oles, Pieronczyk, Oles"
FLAGS DCP
INDEX 01 00:00:00
FILE "04 French Friend.wav" WAVE
TRACK 04 AUDIO
TITLE "French Friend"
PERFORMER "Oles, Pieronczyk, Oles"
FLAGS DCP
INDEX 01 00:00:00
FILE "05 Fair Play.wav" WAVE
TRACK 05 AUDIO
TITLE "Fair Play"
PERFORMER "Oles, Pieronczyk, Oles"
FLAGS DCP
INDEX 01 00:00:00
FILE "06 Gray Days.wav" WAVE
TRACK 06 AUDIO
TITLE "Gray Days"
PERFORMER "Oles, Pieronczyk, Oles"
FLAGS DCP
INDEX 01 00:00:00
FILE "07 Drums Area.wav" WAVE
TRACK 07 AUDIO
TITLE "Drums Area"
PERFORMER "Oles, Pieronczyk, Oles"
FLAGS DCP
INDEX 01 00:00:00
FILE "08 Landscape.wav" WAVE
TRACK 08 AUDIO
TITLE "Landscape"
PERFORMER "Oles, Pieronczyk, Oles"
FLAGS DCP
INDEX 01 00:00:00
FILE "09 Breathliss.wav" WAVE
TRACK 09 AUDIO
TITLE "Breathliss"
PERFORMER "Oles, Pieronczyk, Oles"
FLAGS DCP
INDEX 01 00:00:00
FILE "10 Cold Rain.wav" WAVE
TRACK 10 AUDIO
TITLE "Cold Rain"
PERFORMER "Oles, Pieronczyk, Oles"
FLAGS DCP
INDEX 01 00:00:00
Доп. информация: Recorded March 1-2, 2001 at Studio Radio TAK, Kielce
 
Об исполнителе (группе)
Marcin Oleś / Adam Pierończyk / Bartłomiej Brat Oleś
Gray Days
Wydawca: Not Two, 2001
Symbol: MW 726-2
Nośnik: CD
Bartłomiej Brat Oleś and Marcin Oleś
Twin brothers Marcin and Bartlomiej Oles (Marcin - bass / Bartlomiej (Brat) - drums) are some the most unique and creative contemporary European musicians now. They are also an accomplished composers, producers and authors of theatrical and film music. Their projects brake jazz stereotype of rhythmic section and prove that double bass and the drums are sufficient to create music so complete, full of energy and unusual sounds.
Oles brothers were born on the 4th of January 1973, In Sosnowiec (south of Poland) in musical family (father was a conductor). Since their first recording in 2000 they continuously compose, record and perform original music based on a jazz tradition.
Initially fascinated by jazz-rock and electronic music, in early 1990s their attention switched to acoustic jazz that resulted in creation of a formation Custom Quartet with repertoire consisted of jazz standards. After a year the band transformed into Custom Trio which played mainly music composed by Barlomiej. Custom Trio, with a line-up Krzysztof Kapel – sax, Marcin – double bass, Bartlomiej – drums, made its debut in 1999 with an album Mr. Nobody. One year later the group teamed up with legendary polish trumpet player Andrzej Przybielski and recorded their second album CT & Andrzej Przybielski Free Bop. The cooperation was concluded by an album Back Point in 2002.
In 2002 they worked together with Dionizy Piatkowski's festival Era Jazzu, at the international project, which expanded beyond jazz boundaries. The Contemporary Quintet was based on work of polish contemporary composers Grazyna Bacewicz, Witold Lutoslawki and Krzysztof Penderecki, played by German bass clarinet player Rudi Mahall, Romanian pianist Mircea Tiberian and American french horn player Mark Taylor.
Between 2001 and 2003 they cooperated with Mikolaj Trzaska, recording albums Danzinger Strassenmusik (with live street performance), Mikro Music, la Sketch up and Suite for trio + – with guest appearance French trumpet player Jean-Luc Cappozzo.
Marcin's double bass solo album examining, interpreting and saluting the work of Ornette Coleman (Ornette on bass) was released in 2003. Drum solo suite in 12 parts (FreeDrum Suite) by Bartlomiej followed in 2004.
In 2003 they established formation Oles | Jörgensmann | Oles with German clarinet virtuoso Theo Jörgensmann. The trio extensively performs and recorded number of albums for NotTwo, Fenomedia and Hat Hut labels.
In 2005 they invited Ken Vandermark into Michal Rosicki's Sonus Studio Lomianki, and together recorded album of free improvisations titled Ideas.
Their own label - Fenommedia Records, was formed together with Graphic Design Studio Fenommedia in 2005.
In 2007 a new project was created: Marcin & Bartlomiej Brat Oles Duo – one of the most original and unique in their career to date. The first album by Duo was published in 2008 and new one is planned for 2011.
The music of Oles brothers is a sensation not only on Polish but also on international scale. Their limited to bare essential instrumentation keep their music in the center what has always been essential for jazz - rhythm. On the other hand, their music is composed to the much greater degree, and uses ideas and techniques closer to contemporary chamber music then jazz. Their improvisations are always engaging, their execution flawless. Their keep pushing boundaries of free and improvised music.
Adam Pieronczyk
born January 24, 1970 Elblag / Poland) saxophones, zoucra. Leading Polish jazz saxophone player and one of the most important and creative artists of today’s jazz scene in Poland. As a leader and member of numerous groups and projects Pieronczyk: - won the top position in the annual “Jazz Forum” magazine ranking as The New Hope Of Polish Jazz (1997); - was nominated for the Polish music award “Fryderyk” as The Best Jazz Artist Of The Year (1997,1998, 2009); – has been given the prize of the Musician Union in Poland as The Best Artist Of The Year (1999); - was voted in the main Polish daily newspaper “Gazeta Wyborcza” one of the most influential jazz musicians in Poland for the XXI century” ( 2000); - has been given the jazzfestival prize of Bielsko-Biala Angel Of Jazz (2003); - won the top position in the annual Jazz Forum magazine ranking as The Best Soprano Saxophonist Of The Year (from 2003 to 2008).
Adam Pieronczyk has cooperated with: Gary Thomas, Greg Osby, Sam Rivers, Archie Shepp, Bobby McFerrin, Tomasz Stanko, Ted Curson, Anthony Cox, Joey Calderazzo, Ed Schuller and has performed all over Europe (Poland, Germany, France, Italy, Belgium, Switzerland, Austria, England, Sweden, Denmark, Czech Republic, Hungary, Bulgaria, Romania, Ukraine, Russia), Kazakhstan, Kirghizia, Morocco, Israel, Brazil and USA.
 
Состав
Acoustic Bass – Marcin Oleś
Drums – Bartłomiej Brat Oleś
Tenor Saxophone, Soprano Saxophone – Adam Pierończyk
По всем вопросам пишите личное сообщение пользователю M0p94ok.
11:04
231
Нет комментариев. Ваш будет первым!