Поиск

(Free Funk) [CD] Ronald Shannon Jackson - Texas - 1988, FLAC (tracks+.cue), lossless

(Free Funk) [CD] Ronald Shannon Jackson - Texas - 1988, FLAC (tracks+.cue), lossless
Ronald Shannon Jackson / Texas
Жанр: Free Funk
Носитель: CD
Страна-производитель диска (релиза): USA
Год издания: 1988
Издатель (лейбл): Caravan Of Dreams
Номер по каталогу: Dreams 012
Страна исполнителя (группы): USA
Аудиокодек: FLAC (*.flac)
Тип рипа: tracks+.cue
Битрейт аудио: lossless
Продолжительность: 43:49
Источник (релизер): gssmg7
Наличие сканов в содержимом раздачи: да
Треклист:
1. Nothing Beats A Failure But A Try - 6:00
2. Holyman - 5:25
3. Panhandling - 5:39
4. Charming The Beast - 3:18
5. Evoking - 8:00
6. Shotgun Wedding - 5:39
7. Psychic Greeting - 6:00
8. Sheep In Wolf's Clothing - 3:20
 
Лог создания рипа
Exact Audio Copy V1.0 beta 2 from 29. April 2011
EAC extraction logfile from 15. April 2015, 0:15
Ronald Shannon Jackson / Texas
Used drive : Optiarc DVD RW AD-5280S Adapter: 1 ID: 1
Read mode : Secure
Utilize accurate stream : Yes
Defeat audio cache : Yes
Make use of C2 pointers : No
Read offset correction : 48
Overread into Lead-In and Lead-Out : No
Fill up missing offset samples with silence : Yes
Delete leading and trailing silent blocks : No
Null samples used in CRC calculations : Yes
Used interface : Installed external ASPI interface
Gap handling : Appended to previous track
Used output format : User Defined Encoder
Selected bitrate : 128 kBit/s
Quality : High
Add ID3 tag : No
Command line compressor : C:\Program Files\FLAC\flac.exe
Additional command line options : -V -8 -T "Genre=%genre%" -T "Artist=%artist%" -T "Title=%title%" -T "Album=%albumtitle%" -T "Date=%year%" -T "Tracknumber=%tracknr%" -T "Comment=%comment%" %source%
TOC of the extracted CD
Track | Start | Length | Start sector | End sector
---------------------------------------------------------
1 | 0:00.00 | 6:01.40 | 0 | 27114
2 | 6:01.40 | 5:26.72 | 27115 | 51636
3 | 11:28.37 | 5:41.23 | 51637 | 77234
4 | 17:09.60 | 3:20.30 | 77235 | 92264
5 | 20:30.15 | 8:12.60 | 92265 | 129224
6 | 28:43.00 | 5:45.65 | 129225 | 155164
7 | 34:28.65 | 5:54.32 | 155165 | 181746
8 | 40:23.22 | 3:25.55 | 181747 | 197176
Track 1
Filename C:\Ronald Shannon Jackson (1988) - Texas\01 - Nothing Beats A Failure But A Try.wav
Pre-gap length 0:00:02.00
Peak level 67.1 %
Extraction speed 2.3 X
Track quality 99.9 %
Test CRC 118D588B
Copy CRC 118D588B
Accurately ripped (confidence 3) [45C6773D] (AR v2)
Copy OK
Track 2
Filename C:\Ronald Shannon Jackson (1988) - Texas\02 - Holyman.wav
Pre-gap length 0:00:01.08
Peak level 34.2 %
Extraction speed 2.9 X
Track quality 100.0 %
Test CRC 17A828DA
Copy CRC 17A828DA
Accurately ripped (confidence 3) [F6F061BB] (AR v2)
Copy OK
Track 3
Filename C:\Ronald Shannon Jackson (1988) - Texas\03 - Panhandling.wav
Pre-gap length 0:00:01.07
Peak level 70.0 %
Extraction speed 2.9 X
Track quality 99.9 %
Test CRC 07464B9F
Copy CRC 07464B9F
Accurately ripped (confidence 3) [5496DFC5] (AR v2)
Copy OK
Track 4
Filename C:\Ronald Shannon Jackson (1988) - Texas\04 - Charming The Beast.wav
Pre-gap length 0:00:02.05
Peak level 62.7 %
Extraction speed 3.2 X
Track quality 100.0 %
Test CRC 6C1B773C
Copy CRC 6C1B773C
Accurately ripped (confidence 3) [5DCBD7AC] (AR v2)
Copy OK
Track 5
Filename C:\Ronald Shannon Jackson (1988) - Texas\05 - Evoking.wav
Pre-gap length 0:00:02.00
Peak level 60.1 %
Extraction speed 3.8 X
Track quality 100.0 %
Test CRC E8FBB334
Copy CRC E8FBB334
Accurately ripped (confidence 3) [EB77BA46] (AR v2)
Copy OK
Track 6
Filename C:\Ronald Shannon Jackson (1988) - Texas\06 - Shotgun Wedding.wav
Pre-gap length 0:00:03.33
Peak level 61.9 %
Extraction speed 4.0 X
Track quality 100.0 %
Test CRC 6628FAF3
Copy CRC 6628FAF3
Accurately ripped (confidence 3) [509BA343] (AR v2)
Copy OK
Track 7
Filename C:\Ronald Shannon Jackson (1988) - Texas\07 - Psychic Greeting.wav
Pre-gap length 0:00:00.38
Peak level 70.3 %
Extraction speed 4.3 X
Track quality 100.0 %
Test CRC 58254C28
Copy CRC 58254C28
Accurately ripped (confidence 3) [04F6335C] (AR v2)
Copy OK
Track 8
Filename C:\Ronald Shannon Jackson (1988) - Texas\08 - Sheep In Wolf's Clothing.wav
Pre-gap length 0:00:02.02
Peak level 65.3 %
Extraction speed 4.2 X
Track quality 100.0 %
Test CRC D24B6E64
Copy CRC D24B6E64
Accurately ripped (confidence 3) [739BC586] (AR v2)
Copy OK
All tracks accurately ripped
No errors occurred
End of status report
==== Log checksum FCFF703E01887B4764CEBB88A6C9241882C0728B7665FDE6F60F209C6C213B6C ====
 
Содержание индексной карты (.CUE)
REM GENRE Jazz
REM DATE 1988
REM DISCID 4F0A4508
REM COMMENT "ExactAudioCopy v1.0b2"
PERFORMER "Ronald Shannon Jackson"
TITLE "Texas"
FILE "01 - Nothing Beats A Failure But A Try.wav" WAVE
TRACK 01 AUDIO
TITLE "Nothing Beats A Failure But A Try"
PERFORMER "Ronald Shannon Jackson"
INDEX 01 00:00:00
TRACK 02 AUDIO
TITLE "Holyman"
PERFORMER "Ronald Shannon Jackson"
INDEX 00 06:00:32
FILE "02 - Holyman.wav" WAVE
INDEX 01 00:00:00
TRACK 03 AUDIO
TITLE "Panhandling"
PERFORMER "Ronald Shannon Jackson"
INDEX 00 05:25:65
FILE "03 - Panhandling.wav" WAVE
INDEX 01 00:00:00
TRACK 04 AUDIO
TITLE "Charming The Beast"
PERFORMER "Ronald Shannon Jackson"
INDEX 00 05:39:18
FILE "04 - Charming The Beast.wav" WAVE
INDEX 01 00:00:00
TRACK 05 AUDIO
TITLE "Evoking"
PERFORMER "Ronald Shannon Jackson"
INDEX 00 03:18:30
FILE "05 - Evoking.wav" WAVE
INDEX 01 00:00:00
TRACK 06 AUDIO
TITLE "Shotgun Wedding"
PERFORMER "Ronald Shannon Jackson"
INDEX 00 08:09:27
FILE "06 - Shotgun Wedding.wav" WAVE
INDEX 01 00:00:00
TRACK 07 AUDIO
TITLE "Psychic Greeting"
PERFORMER "Ronald Shannon Jackson"
INDEX 00 05:45:27
FILE "07 - Psychic Greeting.wav" WAVE
INDEX 01 00:00:00
TRACK 08 AUDIO
TITLE "Sheep In Wolf's Clothing"
PERFORMER "Ronald Shannon Jackson"
INDEX 00 05:52:30
FILE "08 - Sheep In Wolf's Clothing.wav" WAVE
INDEX 01 00:00:00
 
Об альбоме (сборнике)
For this explosive studio session, Ronald Shannon Jackson's Decoding Society plays mostly concise but rather crowded originals. Altoist Eric Person (also heard on soprano and flute) and guitarist Cary Denigris would later join Chico Hamilton's band. Also in the sextet are Zane Massey on tenor and soprano, guitarist Masujaa, bassist John Moody, and the drummer/leader. The Decoding Society (along with Ornette Coleman's Prime Time and later on Steve Coleman) showed what fusion and funk could have become if they had not become dominated by pop elements. ~ scott yanow, allmusic.com
 
Состав
Decoding Society
Masujaa (Hugh Riley) - guitar
Cary Denigris - guitar
Zane Massey - soprano and tenor saxophones
Eric Person - soprano and alto saxophones, flute
John Moody - bass
Ronald Shannon Jackson - drums
11:05
775
Нет комментариев. Ваш будет первым!