Вы используете незарегистрированную версию компонента "Вкладки"!

Поиск

(Avant-garde) Pat Metheny - 1994 - Zero tolerance for silence (GED 24626), FLAC (image+.cue) lossless

(Avant-garde) Pat Metheny - 1994 - Zero tolerance for silence (GED 24626), FLAC (image+.cue) lossless
Треклист:

pat metheny zero tolerance for silence

Genre: Avant-garde jazz, free improv, noise music
Originally released: 1994
Country: USA
CD: France, Geffen, GED 24626, (1994)
Audio: FLAC (image+.cue)
Total time: 39:17
Source: own rip
Scans: 600 dpi .jpg
01. part 1 (18:33)
02. part 2 (5:17)
03. part 3 (4:19)
04. part 4 (5:13)
05. part 5 (5:53)
 
Credits
Pat Metheny – Guitar
Produced by Pat Metheny
Recorded at Power Station, NYC, December 16, 1992.

 
Log
Exact Audio Copy V1.0 beta 3 from 29. August 2011
EAC extraction logfile from 12. December 2014, 11:31
Pat Metheny / Zero tolerance for silence (GED 24626)
Used drive : HL-DT-STDVDRAM GE20NU11 Adapter: 0 ID: 1
Read mode : Secure
Utilize accurate stream : Yes
Defeat audio cache : Yes
Make use of C2 pointers : No
Read offset correction : 667
Overread into Lead-In and Lead-Out : No
Fill up missing offset samples with silence : Yes
Delete leading and trailing silent blocks : No
Null samples used in CRC calculations : Yes
Used interface : Native Win32 interface for Win NT & 2000
Used output format : User Defined Encoder
Selected bitrate : 896 kBit/s
Quality : High
Add ID3 tag : No
Command line compressor : C:\Program Files\EAC 3\Exact Audio Copy\Flac\flac.exe
Additional command line options : -V -8 %source%
TOC of the extracted CD
Track | Start | Length | Start sector | End sector
---------------------------------------------------------
1 | 0:00.33 | 18:33.00 | 33 | 83507
2 | 18:33.33 | 5:17.02 | 83508 | 107284
3 | 23:50.35 | 4:19.25 | 107285 | 126734
4 | 28:09.60 | 5:13.28 | 126735 | 150237
5 | 33:23.13 | 5:53.70 | 150238 | 176782
Range status and errors
Selected range
Filename C:\OdW\Pat Metheny (1994) Zero tolerance for silence (GED 24626)\Pat Metheny - Zero tolerance for silence (GED 24626).wav
Peak level 99.8 %
Extraction speed 1.6 X
Range quality 100.0 %
Test CRC 9D0DC7EB
Copy CRC 9D0DC7EB
Copy OK
No errors occurred
AccurateRip summary
Track 1 accurately ripped (confidence 19) [542FDB6D] (AR v2)
Track 2 accurately ripped (confidence 19) [81A2B195] (AR v2)
Track 3 accurately ripped (confidence 19) [CE47A396] (AR v2)
Track 4 accurately ripped (confidence 19) [7125F641] (AR v2)
Track 5 accurately ripped (confidence 20) [674C3652] (AR v2)
All tracks accurately ripped
End of status report
==== Log checksum 675986DC858761CE0A4B483BA4BD32095541328EB30F03927020253912DE0B12 ====
 
.cue
REM GENRE Jazz
REM DATE 1994
REM DISCID 2C093505
REM COMMENT "ExactAudioCopy v1.0b3"
PERFORMER "Pat Metheny"
TITLE "Zero tolerance for silence (GED 24626)"
FILE "Pat Metheny - Zero tolerance for silence (GED 24626).flac" WAVE
TRACK 01 AUDIO
TITLE "part 1"
PERFORMER "Pat Metheny"
INDEX 00 00:00:00
INDEX 01 00:00:33
TRACK 02 AUDIO
TITLE "part 2"
PERFORMER "Pat Metheny"
INDEX 00 18:18:58
INDEX 01 18:33:33
TRACK 03 AUDIO
TITLE "part 3"
PERFORMER "Pat Metheny"
INDEX 00 23:43:60
INDEX 01 23:50:35
TRACK 04 AUDIO
TITLE "part 4"
PERFORMER "Pat Metheny"
INDEX 00 28:08:70
INDEX 01 28:09:60
TRACK 05 AUDIO
TITLE "part 5"
PERFORMER "Pat Metheny"
INDEX 00 33:17:25
INDEX 01 33:23:13
 
.accurip
[CUETools log; Date: 12.12.2014 11:33:46; Version: 2.1.4]
Pregap length 00:00:33.
[CTDB TOCID: vxYxRwk21CFp8AujRnfx87evFks-] found.
Track | CTDB Status
1 | (1/1) Accurately ripped
2 | (1/1) Accurately ripped
3 | (1/1) Accurately ripped
4 | (1/1) Accurately ripped
5 | (1/1) Accurately ripped
[AccurateRip ID: 0009d5e6-002ad7b4-2c093505] found.
Track [ CRC | V2 ] Status
01 [3d5ecceb|542fdb6d] (28+19/47) Accurately ripped
02 [dfb34bfb|81a2b195] (28+19/47) Accurately ripped
03 [64401f0f|ce47a396] (28+19/47) Accurately ripped
04 [bdce3d3e|7125f641] (28+19/47) Accurately ripped
05 [8f8efcc0|674c3652] (28+20/48) Accurately ripped
Track Peak [ CRC32 ] [W/O NULL] [ LOG ]
-- 99,8 [9D0DC7EB] [B858B16A] CRC32
01 99,8 [5BD4C1FD] [ABA8C281]
02 92,7 [62E7EE42] [C3D443CF]
03 99,8 [B593F204] [F57CD533]
04 99,8 [E32D0C6F] [1AE59479]
05 99,8 [E3E13766] [FCC6A7A4]

 
CD, Matrix, Back
По всем вопросам пишите личное сообщение пользователю M0p94ok.
11:05
319
Нет комментариев. Ваш будет первым!