Вы используете незарегистрированную версию компонента "Вкладки"!

Поиск

(Avant-Garde Jazz, Free Improvisation) [CD] Ray Anderson, Han Bennink, Christy Doran - A B D - 2011, FLAC (tracks+.cue), lossless

(Avant-Garde Jazz, Free Improvisation) [CD] Ray Anderson, Han Bennink, Christy Doran - A B D - 2011, FLAC (tracks+.cue), lossless
Треклист:
Ray Anderson, Han Bennink, Christy Doran / A B D
Жанр: Avant-Garde Jazz, Free Improvisation
Носитель: CD
Страна-производитель диска (релиза): Switzerland
Год издания: 2011
Издатель (лейбл): hatOLOGY
Номер по каталогу: 695
Аудиокодек: FLAC (*.flac)
Тип рипа: tracks+.cue
Битрейт аудио: lossless
Продолжительность: 58:13
Источник (релизер): cd
Наличие сканов в содержимом раздачи: нет
Треклист:
1. Azurety 7:05
2. B & D 4:28
3. March Of The Hipsters 6:54
4. Heights 10:55
5. Just Squeeze Me 3:28
6. A B D 3:25
7. My Children Are The Reason Why I Need To Own My Publishing 4:34
8. Tabasco Cart 10:24
9. Buckethead 3:11
10. Hence The Reason 3:44
 
Лог создания рипа
Exact Audio Copy V1.0 beta 3 from 29. August 2011
EAC extraction logfile from 11. April 2015, 22:09
Ray Anderson, Han Bennink, Christy Doran / A B D
Used drive : ASUS DRW-24F1ST a Adapter: 0 ID: 0
Read mode : Secure
Utilize accurate stream : Yes
Defeat audio cache : Yes
Make use of C2 pointers : No
Read offset correction : 6
Overread into Lead-In and Lead-Out : No
Fill up missing offset samples with silence : Yes
Delete leading and trailing silent blocks : No
Null samples used in CRC calculations : Yes
Used interface : Native Win32 interface for Win NT & 2000
Gap handling : Appended to previous track
Used output format : User Defined Encoder
Selected bitrate : 320 kBit/s
Quality : High
Add ID3 tag : No
Command line compressor : D:\Programs\Exact Audio Copy\Flac\flac.exe
Additional command line options : -V -8 -T "Genre=%genre%" -T "Artist=%artist%" -T "Title=%title%" -T "Album=%albumtitle%" -T "Date=%year%" -T "Tracknumber=%tracknr%" -T "Comment=%comment%" %source%
TOC of the extracted CD
Track | Start | Length | Start sector | End sector
---------------------------------------------------------
1 | 0:00.02 | 7:05.28 | 2 | 31904
2 | 7:05.30 | 4:28.68 | 31905 | 52072
3 | 11:34.23 | 6:54.01 | 52073 | 83123
4 | 18:28.24 | 10:55.01 | 83124 | 132249
5 | 29:23.25 | 3:28.73 | 132250 | 147922
6 | 32:52.23 | 3:27.02 | 147923 | 163449
7 | 36:19.25 | 4:34.06 | 163450 | 184005
8 | 40:53.31 | 10:24.49 | 184006 | 230854
9 | 51:18.05 | 3:11.29 | 230855 | 245208
10 | 54:29.34 | 3:44.40 | 245209 | 262048
Track 1
Filename D:\EAC\01 Azurety.wav
Pre-gap length 0:00:02.02
Peak level 93.0 %
Extraction speed 2.2 X
Track quality 100.0 %
Test CRC DED3ADAF
Copy CRC DED3ADAF
Copy OK
Track 2
Filename D:\EAC\02 B & D.wav
Peak level 92.8 %
Extraction speed 1.9 X
Track quality 99.9 %
Test CRC 1212063C
Copy CRC 1212063C
Copy OK
Track 3
Filename D:\EAC\03 March Of The Hipsters.wav
Peak level 92.9 %
Extraction speed 2.0 X
Track quality 99.9 %
Test CRC 4A7567F9
Copy CRC 4A7567F9
Copy OK
Track 4
Filename D:\EAC\04 Heights.wav
Peak level 93.2 %
Extraction speed 2.1 X
Track quality 99.9 %
Test CRC 3E248770
Copy CRC 3E248770
Copy OK
Track 5
Filename D:\EAC\05 Just Squeeze Me.wav
Peak level 90.9 %
Extraction speed 2.0 X
Track quality 100.0 %
Test CRC 5A79E2C4
Copy CRC 5A79E2C4
Copy OK
Track 6
Filename D:\EAC\06 A B D.wav
Peak level 94.3 %
Extraction speed 2.0 X
Track quality 100.0 %
Test CRC 112C021C
Copy CRC 112C021C
Copy OK
Track 7
Filename D:\EAC\07 My Children Are The Reason Why I Need To Own My Publishing.wav
Pre-gap length 0:00:01.66
Peak level 91.0 %
Extraction speed 2.1 X
Track quality 100.0 %
Test CRC 58BD2F3D
Copy CRC 58BD2F3D
Copy OK
Track 8
Filename D:\EAC\08 Tabasco Cart.wav
Peak level 92.5 %
Extraction speed 2.2 X
Track quality 100.0 %
Test CRC EA419177
Copy CRC EA419177
Copy OK
Track 9
Filename D:\EAC\09 Buckethead.wav
Peak level 92.3 %
Extraction speed 2.0 X
Track quality 100.0 %
Test CRC 0B8024B0
Copy CRC 0B8024B0
Copy OK
Track 10
Filename D:\EAC\10 Hence The Reason.wav
Peak level 92.5 %
Extraction speed 2.0 X
Track quality 100.0 %
Test CRC 969423EB
Copy CRC 969423EB
Copy OK
No errors occurred
End of status report
==== Log checksum C5D4AEF529E093CF3E5C64FBEABC0667D83DBC4427F9CD6AFE9AD02927471FBE ====
 
Содержание индексной карты (.CUE)
REM GENRE Jazz
REM DATE 2011
REM DISCID 830DA50A
REM COMMENT "ExactAudioCopy v1.0b3"
PERFORMER " Ray Anderson, Han Bennink, Christy Doran"
TITLE "A B D"
FILE "01 Azurety.wav" WAVE
TRACK 01 AUDIO
TITLE "Azurety"
PERFORMER " Ray Anderson, Han Bennink, Christy Doran"
ISRC CH1311101259
PREGAP 00:00:02
INDEX 01 00:00:00
FILE "02 B & D.wav" WAVE
TRACK 02 AUDIO
TITLE "B & D"
PERFORMER " Ray Anderson, Han Bennink, Christy Doran"
ISRC CH1311101260
INDEX 01 00:00:00
FILE "03 March Of The Hipsters.wav" WAVE
TRACK 03 AUDIO
TITLE "March Of The Hipsters"
PERFORMER " Ray Anderson, Han Bennink, Christy Doran"
ISRC CH1311101261
INDEX 01 00:00:00
FILE "04 Heights.wav" WAVE
TRACK 04 AUDIO
TITLE "Heights"
PERFORMER " Ray Anderson, Han Bennink, Christy Doran"
ISRC CH1311101262
INDEX 01 00:00:00
FILE "05 Just Squeeze Me.wav" WAVE
TRACK 05 AUDIO
TITLE "Just Squeeze Me"
PERFORMER " Ray Anderson, Han Bennink, Christy Doran"
ISRC CH1311101263
INDEX 01 00:00:00
FILE "06 A B D.wav" WAVE
TRACK 06 AUDIO
TITLE "A B D"
PERFORMER " Ray Anderson, Han Bennink, Christy Doran"
ISRC CH1311101263
INDEX 01 00:00:00
TRACK 07 AUDIO
TITLE "My Children Are The Reason Why I Need To Own My Publishing"
PERFORMER " Ray Anderson, Han Bennink, Christy Doran"
ISRC CH1311101265
INDEX 00 03:25:11
FILE "07 My Children Are The Reason Why I Need To Own My Publishing.wav" WAVE
INDEX 01 00:00:00
FILE "08 Tabasco Cart.wav" WAVE
TRACK 08 AUDIO
TITLE "Tabasco Cart"
PERFORMER " Ray Anderson, Han Bennink, Christy Doran"
ISRC CH1311101266
INDEX 01 00:00:00
FILE "09 Buckethead.wav" WAVE
TRACK 09 AUDIO
TITLE "Buckethead"
PERFORMER " Ray Anderson, Han Bennink, Christy Doran"
ISRC CH1311101267
INDEX 01 00:00:00
FILE "10 Hence The Reason.wav" WAVE
TRACK 10 AUDIO
TITLE "Hence The Reason"
PERFORMER " Ray Anderson, Han Bennink, Christy Doran"
ISRC CH1311101268
INDEX 01 00:00:00
Доп. информация: Tracks 1 to 7 recorded on 21, 22 April 1994 at Radio DRS, Zurich, Switzerland, released on 'Azurety' (hat ART CD 6155).
Tracks 8 to 10 Recorded on 15, 16 March 1995 at Schulhaus Oberengstringen/Zurich, Switzerland, released on 'Cheer Up' (hat ART CD 6175).
 
Состав
Drums – Han Bennink
Guitar [Guitars], Electronics [Delay Devices] – Christy Doran
Trombone, Tuba – Ray Anderson
По всем вопросам пишите личное сообщение пользователю M0p94ok.
11:06
410
Нет комментариев. Ваш будет первым!