Вы используете незарегистрированную версию компонента "Вкладки"!

Поиск

(Avant-Garde Jazz, Free Improvisation) [CD] Soko Steidle (Oliver Steidle, Rudi Mahall, Jan Roder, Henrik Walsdorff) - Blaulicht - 2007, FLAC (tracks+.cue), lossless

(Avant-Garde Jazz, Free Improvisation) [CD] Soko Steidle (Oliver Steidle, Rudi Mahall, Jan Roder, Henrik Walsdorff) - Blaulicht - 2007, FLAC (tracks+.cue), lossless
Треклист:
Soko Steidle / Blaulicht
Жанр: Avant-Garde Jazz, Free Improvisation
Носитель: CD
Страна-производитель диска (релиза): Germany
Год издания: 2007
Издатель (лейбл): Jazzwerkstatt
Номер по каталогу: jw 020
Аудиокодек: FLAC (*.flac)
Тип рипа: tracks+.cue
Битрейт аудио: lossless
Продолжительность: 62:14
Источник (релизер): cd
Наличие сканов в содержимом раздачи: нет
Треклист:
1. Pad A Riddle 2:51
2. Hang Over Postbauer Rag 0:35
3. Stegobium Paniceum 4:25
4. Stormtroopers Of Love 5:44
5. 1 FC N 3:48
6. Dermester Lardarius 0:53
7. There Will Be Another You 2:00
8. Attagenus Unicolor 7:45
9. This Stuff Makes Elephants Sleep 2:22
10. Cheers For H. M. 7:32
11. Heartfull Piece Of Peace 1:14
12. Hope 2:53
13. Mellow Fellow 3:03
14. Dermestes Bicolor 3:21
15. Rani Banani 4:10
16. Leverington Icps 6:14
17. Agathidium Bushi 3:10
 
Лог создания рипа
Exact Audio Copy V1.0 beta 3 from 29. August 2011
EAC extraction logfile from 12. April 2015, 21:48
Soko Steidle / Blaulicht
Used drive : ASUS DRW-24F1ST a Adapter: 0 ID: 0
Read mode : Secure
Utilize accurate stream : Yes
Defeat audio cache : Yes
Make use of C2 pointers : No
Read offset correction : 6
Overread into Lead-In and Lead-Out : No
Fill up missing offset samples with silence : Yes
Delete leading and trailing silent blocks : No
Null samples used in CRC calculations : Yes
Used interface : Native Win32 interface for Win NT & 2000
Gap handling : Appended to previous track
Used output format : User Defined Encoder
Selected bitrate : 320 kBit/s
Quality : High
Add ID3 tag : No
Command line compressor : D:\Programs\Exact Audio Copy\Flac\flac.exe
Additional command line options : -V -8 -T "Genre=%genre%" -T "Artist=%artist%" -T "Title=%title%" -T "Album=%albumtitle%" -T "Date=%year%" -T "Tracknumber=%tracknr%" -T "Comment=%comment%" %source%
TOC of the extracted CD
Track | Start | Length | Start sector | End sector
---------------------------------------------------------
1 | 0:00.00 | 2:51.35 | 0 | 12859
2 | 2:51.35 | 0:39.25 | 12860 | 15809
3 | 3:30.60 | 4:25.20 | 15810 | 35704
4 | 7:56.05 | 5:44.53 | 35705 | 61557
5 | 13:40.58 | 3:48.47 | 61558 | 78704
6 | 17:29.30 | 0:53.48 | 78705 | 82727
7 | 18:23.03 | 2:00.72 | 82728 | 91799
8 | 20:24.00 | 7:46.24 | 91800 | 126773
9 | 28:10.24 | 2:22.67 | 126774 | 137490
10 | 30:33.16 | 7:32.27 | 137491 | 171417
11 | 38:05.43 | 1:14.46 | 171418 | 177013
12 | 39:20.14 | 2:53.45 | 177014 | 190033
13 | 42:13.59 | 3:03.41 | 190034 | 203799
14 | 45:17.25 | 3:21.59 | 203800 | 218933
15 | 48:39.09 | 4:10.38 | 218934 | 237721
16 | 52:49.47 | 6:14.33 | 237722 | 265804
17 | 59:04.05 | 3:10.16 | 265805 | 280070
Track 1
Filename D:\EAC\01 Pad A Riddle.wav
Pre-gap length 0:00:02.00
Peak level 98.8 %
Extraction speed 3.9 X
Track quality 100.0 %
Test CRC 91060B44
Copy CRC 91060B44
Copy OK
Track 2
Filename D:\EAC\02 Hang Over Postbauer Rag.wav
Peak level 98.8 %
Extraction speed 2.5 X
Track quality 100.0 %
Test CRC 23BE89A3
Copy CRC 23BE89A3
Copy OK
Track 3
Filename D:\EAC\03 Stegobium Paniceum.wav
Peak level 98.8 %
Extraction speed 4.2 X
Track quality 99.9 %
Test CRC E47C8017
Copy CRC E47C8017
Copy OK
Track 4
Filename D:\EAC\04 Stormtroopers Of Love.wav
Peak level 98.8 %
Extraction speed 5.4 X
Track quality 100.0 %
Test CRC 12A86BF6
Copy CRC 12A86BF6
Copy OK
Track 5
Filename D:\EAC\05 1. FC N.wav
Peak level 98.8 %
Extraction speed 5.5 X
Track quality 100.0 %
Test CRC E0525576
Copy CRC E0525576
Copy OK
Track 6
Filename D:\EAC\06 Dermester Lardarius.wav
Peak level 98.8 %
Extraction speed 3.8 X
Track quality 100.0 %
Test CRC 0E6155E4
Copy CRC 0E6155E4
Copy OK
Track 7
Filename D:\EAC\07 There Will Be Another You.wav
Peak level 98.8 %
Extraction speed 5.1 X
Track quality 100.0 %
Test CRC 06E059B5
Copy CRC 06E059B5
Copy OK
Track 8
Filename D:\EAC\08 Attagenus Unicolor.wav
Peak level 98.8 %
Extraction speed 6.7 X
Track quality 100.0 %
Test CRC 1246D77F
Copy CRC 1246D77F
Copy OK
Track 9
Filename D:\EAC\09 This Stuff Makes Elephants Sleep.wav
Peak level 69.9 %
Extraction speed 6.0 X
Track quality 100.0 %
Test CRC 2F4E5F74
Copy CRC 2F4E5F74
Copy OK
Track 10
Filename D:\EAC\10 Cheers For H. M..wav
Peak level 98.8 %
Extraction speed 7.5 X
Track quality 100.0 %
Test CRC CA09DDC6
Copy CRC CA09DDC6
Copy OK
Track 11
Filename D:\EAC\11 Heartfull Piece Of Peace.wav
Peak level 98.8 %
Extraction speed 5.4 X
Track quality 100.0 %
Test CRC 0CD77A7B
Copy CRC 0CD77A7B
Copy OK
Track 12
Filename D:\EAC\12 Hope.wav
Peak level 98.8 %
Extraction speed 5.8 X
Track quality 99.9 %
Test CRC 52AF8FE6
Copy CRC 52AF8FE6
Copy OK
Track 13
Filename D:\EAC\13 Mellow Fellow.wav
Peak level 98.8 %
Extraction speed 7.1 X
Track quality 100.0 %
Test CRC 7C129683
Copy CRC 7C129683
Copy OK
Track 14
Filename D:\EAC\14 Dermestes Bicolor.wav
Peak level 98.8 %
Extraction speed 7.4 X
Track quality 100.0 %
Test CRC 37209A1A
Copy CRC 37209A1A
Copy OK
Track 15
Filename D:\EAC\15 Rani Banani.wav
Peak level 98.8 %
Extraction speed 7.9 X
Track quality 100.0 %
Test CRC E5BD73AC
Copy CRC E5BD73AC
Copy OK
Track 16
Filename D:\EAC\16 Leverington 3CPS.wav
Peak level 98.8 %
Extraction speed 8.5 X
Track quality 100.0 %
Test CRC D7F60DF1
Copy CRC D7F60DF1
Copy OK
Track 17
Filename D:\EAC\17 Agathidium Bushi.wav
Peak level 98.8 %
Extraction speed 6.9 X
Track quality 99.9 %
Test CRC B3000881
Copy CRC B3000881
Copy OK
No errors occurred
End of status report
==== Log checksum 2A420EEB0F7E5C60D907C6B14ADAAA1279F5F8D98E5A6942020855DE8FF0EADC ====
 
Содержание индексной карты (.CUE)
REM GENRE Jazz
REM DATE 2007
REM DISCID DB0E9611
REM COMMENT "ExactAudioCopy v1.0b3"
PERFORMER "Soko Steidle"
TITLE "Blaulicht"
FILE "01 Pad A Riddle.wav" WAVE
TRACK 01 AUDIO
TITLE "Pad A Riddle"
PERFORMER "Soko Steidle"
FLAGS DCP
INDEX 01 00:00:00
FILE "02 Hang Over Postbauer Rag.wav" WAVE
TRACK 02 AUDIO
TITLE "Hang Over Postbauer Rag"
PERFORMER "Soko Steidle"
FLAGS DCP
INDEX 01 00:00:00
FILE "03 Stegobium Paniceum.wav" WAVE
TRACK 03 AUDIO
TITLE "Stegobium Paniceum"
PERFORMER "Soko Steidle"
FLAGS DCP
INDEX 01 00:00:00
FILE "04 Stormtroopers Of Love.wav" WAVE
TRACK 04 AUDIO
TITLE "Stormtroopers Of Love"
PERFORMER "Soko Steidle"
FLAGS DCP
INDEX 01 00:00:00
FILE "05 1. FC N.wav" WAVE
TRACK 05 AUDIO
TITLE "1. FC N"
PERFORMER "Soko Steidle"
FLAGS DCP
INDEX 01 00:00:00
FILE "06 Dermester Lardarius.wav" WAVE
TRACK 06 AUDIO
TITLE "Dermester Lardarius"
PERFORMER "Soko Steidle"
FLAGS DCP
INDEX 01 00:00:00
FILE "07 There Will Be Another You.wav" WAVE
TRACK 07 AUDIO
TITLE "There Will Be Another You"
PERFORMER "Soko Steidle"
FLAGS DCP
INDEX 01 00:00:00
FILE "08 Attagenus Unicolor.wav" WAVE
TRACK 08 AUDIO
TITLE "Attagenus Unicolor"
PERFORMER "Soko Steidle"
FLAGS DCP
INDEX 01 00:00:00
FILE "09 This Stuff Makes Elephants Sleep.wav" WAVE
TRACK 09 AUDIO
TITLE "This Stuff Makes Elephants Sleep"
PERFORMER "Soko Steidle"
FLAGS DCP
INDEX 01 00:00:00
FILE "10 Cheers For H. M..wav" WAVE
TRACK 10 AUDIO
TITLE "Cheers For H. M."
PERFORMER "Soko Steidle"
FLAGS DCP
INDEX 01 00:00:00
FILE "11 Heartfull Piece Of Peace.wav" WAVE
TRACK 11 AUDIO
TITLE "Heartfull Piece Of Peace"
PERFORMER "Soko Steidle"
FLAGS DCP
INDEX 01 00:00:00
FILE "12 Hope.wav" WAVE
TRACK 12 AUDIO
TITLE "Hope"
PERFORMER "Soko Steidle"
FLAGS DCP
INDEX 01 00:00:00
FILE "13 Mellow Fellow.wav" WAVE
TRACK 13 AUDIO
TITLE "Mellow Fellow"
PERFORMER "Soko Steidle"
FLAGS DCP
INDEX 01 00:00:00
FILE "14 Dermestes Bicolor.wav" WAVE
TRACK 14 AUDIO
TITLE "Dermestes Bicolor"
PERFORMER "Soko Steidle"
FLAGS DCP
INDEX 01 00:00:00
FILE "15 Rani Banani.wav" WAVE
TRACK 15 AUDIO
TITLE "Rani Banani"
PERFORMER "Soko Steidle"
FLAGS DCP
INDEX 01 00:00:00
FILE "16 Leverington 3CPS.wav" WAVE
TRACK 16 AUDIO
TITLE "Leverington 3CPS"
PERFORMER "Soko Steidle"
FLAGS DCP
INDEX 01 00:00:00
FILE "17 Agathidium Bushi.wav" WAVE
TRACK 17 AUDIO
TITLE "Agathidium Bushi"
PERFORMER "Soko Steidle"
FLAGS DCP
INDEX 01 00:00:00
Доп. информация: Recorded 9-10 July 2007
 
Состав
Alto Saxophone – Henrik Walsdorff
Bass Clarinet – Rudi Mahall
Double Bass – Jan Roder
Drums – Oliver Steidle
По всем вопросам пишите личное сообщение пользователю M0p94ok.
11:07
355
Нет комментариев. Ваш будет первым!