Вы используете незарегистрированную версию компонента "Вкладки"!

Поиск

(Avant-Garde Jazz, Free Improvisation) [CD] Soko Steidle (Oliver Steidle, Jan Roder, Henrik Walsdorff, Rudi Mahall) - Maximale Langeweile - 2010, FLAC (tracks+.cue), lossless

(Avant-Garde Jazz, Free Improvisation) [CD] Soko Steidle (Oliver Steidle, Jan Roder, Henrik Walsdorff, Rudi Mahall) - Maximale Langeweile - 2010, FLAC (tracks+.cue), lossless
Треклист:
Soko Steidle / Maximale Langeweile
Жанр: Avant-Garde Jazz, Free Improvisation
Носитель: CD
Страна-производитель диска (релиза): Germany
Год издания: 2010
Издатель (лейбл): Jazzwerkstatt
Номер по каталогу: jw102
Аудиокодек: FLAC (*.flac)
Тип рипа: tracks+.cue
Битрейт аудио: lossless
Продолжительность: 50:25
Источник (релизер): cd
Наличие сканов в содержимом раздачи: нет
Треклист:
1. Maximale Langeweile 3:29
2. Ragga Muffin 5:37
3. Full Heinz 7:13
4. Schweizer Delikatessen 9:54
5. Jenseits Der Besitzstandswahrung 6:11
6. Kalle Radschinsky's Dilemma 5:01
7. Die Todliche Doris 8:43
8. Da Ist Doch So Trommel-Dinsbums Drin 4:13
 
Лог создания рипа
Exact Audio Copy V1.0 beta 3 from 29. August 2011
EAC extraction logfile from 11. April 2015, 19:35
Soko Steidle / Maximale Langeweile
Used drive : ASUS DRW-24F1ST a Adapter: 0 ID: 0
Read mode : Secure
Utilize accurate stream : Yes
Defeat audio cache : Yes
Make use of C2 pointers : No
Read offset correction : 6
Overread into Lead-In and Lead-Out : No
Fill up missing offset samples with silence : Yes
Delete leading and trailing silent blocks : No
Null samples used in CRC calculations : Yes
Used interface : Native Win32 interface for Win NT & 2000
Gap handling : Appended to previous track
Used output format : User Defined Encoder
Selected bitrate : 320 kBit/s
Quality : High
Add ID3 tag : No
Command line compressor : D:\Programs\Exact Audio Copy\Flac\flac.exe
Additional command line options : -V -8 -T "Genre=%genre%" -T "Artist=%artist%" -T "Title=%title%" -T "Album=%albumtitle%" -T "Date=%year%" -T "Tracknumber=%tracknr%" -T "Comment=%comment%" %source%
TOC of the extracted CD
Track | Start | Length | Start sector | End sector
---------------------------------------------------------
1 | 0:00.00 | 3:29.63 | 0 | 15737
2 | 3:29.63 | 5:37.37 | 15738 | 41049
3 | 9:07.25 | 7:13.12 | 41050 | 73536
4 | 16:20.37 | 9:54.47 | 73537 | 118133
5 | 26:15.09 | 6:11.52 | 118134 | 146010
6 | 32:26.61 | 5:01.31 | 146011 | 168616
7 | 37:28.17 | 8:43.60 | 168617 | 207901
8 | 46:12.02 | 4:13.06 | 207902 | 226882
Track 1
Filename D:\EAC\01 Maximale Langeweile.wav
Pre-gap length 0:00:02.00
Peak level 98.9 %
Extraction speed 3.6 X
Track quality 99.9 %
Test CRC C0ACF00C
Copy CRC C0ACF00C
Copy OK
Track 2
Filename D:\EAC\02 Ragga Muffin.wav
Peak level 98.8 %
Extraction speed 4.9 X
Track quality 100.0 %
Test CRC B5362A76
Copy CRC B5362A76
Copy OK
Track 3
Filename D:\EAC\03 Full Heinz.wav
Peak level 98.9 %
Extraction speed 5.7 X
Track quality 100.0 %
Test CRC 8D42EBA2
Copy CRC 8D42EBA2
Copy OK
Track 4
Filename D:\EAC\04 Schweizer Delikatessen.wav
Peak level 98.8 %
Extraction speed 6.3 X
Track quality 99.9 %
Test CRC 0341FEE8
Copy CRC 0341FEE8
Copy OK
Track 5
Filename D:\EAC\05 Jenseits Der Besitzstandswahrung.wav
Peak level 100.0 %
Extraction speed 7.0 X
Track quality 100.0 %
Test CRC FFDBC14E
Copy CRC FFDBC14E
Copy OK
Track 6
Filename D:\EAC\06 Kalle Radschinsky's Dilemma.wav
Peak level 98.8 %
Extraction speed 6.5 X
Track quality 99.9 %
Test CRC 6FEF9EE2
Copy CRC 6FEF9EE2
Copy OK
Track 7
Filename D:\EAC\07 Die Todliche Doris.wav
Peak level 98.8 %
Extraction speed 8.0 X
Track quality 100.0 %
Test CRC 44EC0DF5
Copy CRC 44EC0DF5
Copy OK
Track 8
Filename D:\EAC\08 Da Ist Doch So Trommel-Dinsbums Drin.wav
Peak level 98.8 %
Extraction speed 7.7 X
Track quality 100.0 %
Test CRC A5DD7970
Copy CRC A5DD7970
Copy OK
No errors occurred
End of status report
==== Log checksum 717799EA682382483ABD9D3D95248C9FC0695B9F0FE71349EC1EA8698F0CFFDD ====
 
Содержание индексной карты (.CUE)
REM GENRE Jazz
REM DATE 2010
REM DISCID 720BD108
REM COMMENT "ExactAudioCopy v1.0b3"
PERFORMER "Soko Steidle"
TITLE "Maximale Langeweile"
FILE "01 Maximale Langeweile.wav" WAVE
TRACK 01 AUDIO
TITLE "Maximale Langeweile"
PERFORMER "Soko Steidle"
FLAGS DCP
INDEX 01 00:00:00
FILE "02 Ragga Muffin.wav" WAVE
TRACK 02 AUDIO
TITLE "Ragga Muffin"
PERFORMER "Soko Steidle"
FLAGS DCP
INDEX 01 00:00:00
FILE "03 Full Heinz.wav" WAVE
TRACK 03 AUDIO
TITLE "Full Heinz"
PERFORMER "Soko Steidle"
FLAGS DCP
INDEX 01 00:00:00
FILE "04 Schweizer Delikatessen.wav" WAVE
TRACK 04 AUDIO
TITLE "Schweizer Delikatessen"
PERFORMER "Soko Steidle"
FLAGS DCP
INDEX 01 00:00:00
FILE "05 Jenseits Der Besitzstandswahrung.wav" WAVE
TRACK 05 AUDIO
TITLE "Jenseits Der Besitzstandswahrung"
PERFORMER "Soko Steidle"
FLAGS DCP
INDEX 01 00:00:00
FILE "06 Kalle Radschinsky's Dilemma.wav" WAVE
TRACK 06 AUDIO
TITLE "Kalle Radschinsky's Dilemma"
PERFORMER "Soko Steidle"
FLAGS DCP
INDEX 01 00:00:00
FILE "07 Die Todliche Doris.wav" WAVE
TRACK 07 AUDIO
TITLE "Die Todliche Doris"
PERFORMER "Soko Steidle"
FLAGS DCP
INDEX 01 00:00:00
FILE "08 Da Ist Doch So Trommel-Dinsbums Drin.wav" WAVE
TRACK 08 AUDIO
TITLE "Da Ist Doch So Trommel-Dinsbums Drin"
PERFORMER "Soko Steidle"
FLAGS DCP
INDEX 01 00:00:00
Доп. информация: Recorded November 4&5, 2009
 
Состав
Alto Saxophone – Henrik Walsdorff
Bass Clarinet – Rudi Mahall
Double Bass – Jan Roder
Drums – Oliver Steidle
По всем вопросам пишите личное сообщение пользователю M0p94ok.
11:07
280
Нет комментариев. Ваш будет первым!