Вы используете незарегистрированную версию компонента "Вкладки"!

Поиск

(Avantgarde, Cabaret) [CD] Pascal Comelade - A Freak Serenade - 2009, FLAC (image+.cue), lossless

(Avantgarde, Cabaret) [CD] Pascal Comelade - A Freak Serenade - 2009, FLAC (image+.cue), lossless
Треклист:
Pascal Comelade / A Freak Serenade
Жанр: Avantgarde, Cabaret
Носитель: CD
Страна-производитель диска (релиза): France
Год издания: 2009
Издатель (лейбл): Beacause Music
Номер по каталогу: BEC5772551
Страна исполнителя (группы): France
Аудиокодек: FLAC (*.flac)
Тип рипа: image+.cue
Битрейт аудио: lossless
Продолжительность: 00:44:55
Источник (релизер): Собственный диск
Наличие сканов в содержимом раздачи: да
Треклист:
1 A Freak Serenade 5:21
2 The Return Of Lux Interior The Magician 3:33
3 Un Cigaret A L’Estatua D’En Gardel 2:12
4 Two Maniaco-Depressive Beatnicks Squabbling Over A Jane Russell Mozarella’s Stereokini 2:39
5 Perque Vull 2:09
6 El Misteri Del Triangle Del Vermut 2:57
7 Ramblin' Rose 2:43
8 Strip-tease De Mosques En Patinet 4:16
9 Three Eyed Hot-Dog Belly Dance 3:02
10 Europe Change Bad 4:20
11 L’Enterrament De Les Sardines 2:46
12 Sans Les Mains! 2:06
13 The Beat Don’t Make The Monk 3:20
14 Vals Burlesco 3:06
 
Лог создания рипа
Exact Audio Copy V1.0 beta 3 from 29. August 2011
EAC extraction logfile from 14. April 2015, 23:57
Pascal Comelade / A Freak Serenade
Used drive : TSSTcorpCDDVDW SN-208AB Adapter: 1 ID: 0
Read mode : Secure
Utilize accurate stream : Yes
Defeat audio cache : Yes
Make use of C2 pointers : No
Read offset correction : 6
Overread into Lead-In and Lead-Out : No
Fill up missing offset samples with silence : Yes
Delete leading and trailing silent blocks : No
Null samples used in CRC calculations : Yes
Used interface : Native Win32 interface for Win NT & 2000
Used output format : Internal WAV Routines
Sample format : 44.100 Hz; 16 Bit; Stereo
TOC of the extracted CD
Track | Start | Length | Start sector | End sector
---------------------------------------------------------
1 | 0:00.00 | 5:22.60 | 0 | 24209
2 | 5:22.60 | 3:34.61 | 24210 | 40320
3 | 8:57.46 | 2:13.54 | 40321 | 50349
4 | 11:11.25 | 2:41.28 | 50350 | 62452
5 | 13:52.53 | 2:11.28 | 62453 | 72305
6 | 16:04.06 | 2:58.42 | 72306 | 85697
7 | 19:02.48 | 2:45.33 | 85698 | 98105
8 | 21:48.06 | 4:18.18 | 98106 | 117473
9 | 26:06.24 | 3:04.33 | 117474 | 131306
10 | 29:10.57 | 4:21.51 | 131307 | 150932
11 | 33:32.33 | 2:47.71 | 150933 | 163528
12 | 36:20.29 | 2:07.59 | 163529 | 173112
13 | 38:28.13 | 3:21.30 | 173113 | 188217
14 | 41:49.43 | 3:06.06 | 188218 | 202173
Range status and errors
Selected range
Filename D:\Pascal Comelade - A Freak Serenade\Pascal Comelade - A Freak Serenade.wav
Peak level 100.0 %
Extraction speed 4.1 X
Range quality 100.0 %
Test CRC 8C1BE43D
Copy CRC 8C1BE43D
Copy OK
No errors occurred
AccurateRip summary
Track 1 accurately ripped (confidence 2) [34EB7884] (AR v1)
Track 2 accurately ripped (confidence 2) [E143FC32] (AR v1)
Track 3 accurately ripped (confidence 2) [14906C22] (AR v1)
Track 4 accurately ripped (confidence 2) [CC760F8B] (AR v1)
Track 5 accurately ripped (confidence 3) [02FF7974] (AR v1)
Track 6 accurately ripped (confidence 3) [DBFFB215] (AR v1)
Track 7 accurately ripped (confidence 2) [9DE13FE0] (AR v1)
Track 8 accurately ripped (confidence 2) [26A8533F] (AR v1)
Track 9 accurately ripped (confidence 2) [2282FF40] (AR v1)
Track 10 accurately ripped (confidence 2) [3684B87A] (AR v1)
Track 11 accurately ripped (confidence 2) [B718F41E] (AR v1)
Track 12 accurately ripped (confidence 2) [91E1950B] (AR v1)
Track 13 accurately ripped (confidence 2) [FBE423A5] (AR v1)
Track 14 accurately ripped (confidence 2) [DD2AE571] (AR v1)
All tracks accurately ripped
End of status report
==== Log checksum 13AC820F6C343E6026B3D4A7C4D5CDB049D0F87B945A711255C76A251821F32E ====
 
Содержание индексной карты (.CUE)
REM GENRE misc
REM DATE 2009
REM DISCID A50A870E
REM COMMENT "ExactAudioCopy v1.0b3"
PERFORMER "Pascal Comelade"
TITLE "A Freak Serenade"
FILE "Pascal Comelade - A Freak Serenade.flac" WAVE
TRACK 01 AUDIO
TITLE "A Freak Serenade"
PERFORMER "Pascal Comelade"
INDEX 01 00:00:00
TRACK 02 AUDIO
TITLE "The Return Of Lux Interior The Magician"
PERFORMER "Pascal Comelade"
INDEX 01 05:22:60
TRACK 03 AUDIO
TITLE "Un Cigaret A L'Estatua D'En Gardel"
PERFORMER "Pascal Comelade"
INDEX 01 08:57:46
TRACK 04 AUDIO
TITLE "Two Maniaco-Depressive Beatnicks Squabbling Over A Jane Russell Mozarella's S..."
PERFORMER "Pascal Comelade"
INDEX 01 11:11:25
TRACK 05 AUDIO
TITLE "Perque Vull"
PERFORMER "Pascal Comelade"
INDEX 01 13:52:53
TRACK 06 AUDIO
TITLE "El Misteri Del Triangle Del Vermut"
PERFORMER "Pascal Comelade"
INDEX 01 16:04:06
TRACK 07 AUDIO
TITLE "Ramblin' Rose"
PERFORMER "Pascal Comelade"
INDEX 01 19:02:48
TRACK 08 AUDIO
TITLE "Strip-Tease De Mosques En Patinet"
PERFORMER "Pascal Comelade"
INDEX 01 21:48:06
TRACK 09 AUDIO
TITLE "Three Eyed Hot-Dog Belly-Dance"
PERFORMER "Pascal Comelade"
INDEX 01 26:06:24
TRACK 10 AUDIO
TITLE "Europe Change Bad"
PERFORMER "Pascal Comelade"
INDEX 01 29:10:57
TRACK 11 AUDIO
TITLE "L'Enterrament De Les Sardines"
PERFORMER "Pascal Comelade"
INDEX 01 33:32:33
TRACK 12 AUDIO
TITLE "Sans Les Mains"
PERFORMER "Pascal Comelade"
INDEX 01 36:20:29
TRACK 13 AUDIO
TITLE "The Beat Don't Make The Monk"
PERFORMER "Pascal Comelade"
INDEX 01 38:28:13
TRACK 14 AUDIO
TITLE "Vals Burlesco"
PERFORMER "Pascal Comelade"
INDEX 01 41:49:43
Доп. информация: Диджипак поврежден, поэтому обложка с Дискогса
 
Об альбоме (сборнике)
Recorded Studio "Casa Pepe", Barcelona 2009.
По всем вопросам пишите личное сообщение пользователю M0p94ok.
11:03
234
Нет комментариев. Ваш будет первым!