Поиск

(Free Jazz, Free Improvisation) [CD] Lol Coxhill (Misha Mengelberg, Louis Sclavis, Paul Rutherford, Joelle Leandre, Tony Coe...) - Instant Replay - 2011, FLAC (tracks+.cue), lossless

(Free Jazz, Free Improvisation) [CD] Lol Coxhill (Misha Mengelberg, Louis Sclavis, Paul Rutherford, Joelle Leandre, Tony Coe...) - Instant Replay - 2011, FLAC (tracks+.cue), lossless
Треклист:
Lol Coxhill / Instant Replay
Жанр: Free Jazz, Free Improvisation
Носитель: CD
Страна-производитель диска (релиза): France
Год издания: 2011
Издатель (лейбл): Nato
Номер по каталогу: 25-32
Аудиокодек: FLAC (*.flac)
Тип рипа: tracks+.cue
Битрейт аудио: lossless
Продолжительность: 76:47
Источник (релизер): cd
Наличие сканов в содержимом раздачи: нет
Треклист:
1. A1 9:30
2. A2 8:20
3. A3 3:21
4. B1 7:49
5. B2 6:09
6. Embraceable You 1:39
7. B3 4:50
8. Caravan 2:55
9. C1 2:34
10. C2 5:03
11. C3 6:50
12. D1 9:07
13. D2 5:43
14. D3 Pot Pourri 2:56
 
Лог создания рипа
Exact Audio Copy V1.0 beta 3 from 29. August 2011
EAC extraction logfile from 17. February 2015, 16:39
Lol Coxhill / Instant Replay
Used drive : ASUS DRW-24F1ST a Adapter: 0 ID: 0
Read mode : Secure
Utilize accurate stream : Yes
Defeat audio cache : Yes
Make use of C2 pointers : No
Read offset correction : 6
Overread into Lead-In and Lead-Out : No
Fill up missing offset samples with silence : Yes
Delete leading and trailing silent blocks : No
Null samples used in CRC calculations : Yes
Used interface : Native Win32 interface for Win NT & 2000
Gap handling : Appended to previous track
Used output format : User Defined Encoder
Selected bitrate : 320 kBit/s
Quality : High
Add ID3 tag : No
Command line compressor : D:\Programs\Exact Audio Copy\Flac\flac.exe
Additional command line options : -V -8 -T "Genre=%genre%" -T "Artist=%artist%" -T "Title=%title%" -T "Album=%albumtitle%" -T "Date=%year%" -T "Tracknumber=%tracknr%" -T "Comment=%comment%" %source%
TOC of the extracted CD
Track | Start | Length | Start sector | End sector
---------------------------------------------------------
1 | 0:00.00 | 9:29.69 | 0 | 42743
2 | 9:29.69 | 8:20.01 | 42744 | 80244
3 | 17:49.70 | 3:21.14 | 80245 | 95333
4 | 21:11.09 | 7:49.21 | 95334 | 130529
5 | 29:00.30 | 6:08.46 | 130530 | 158175
6 | 35:09.01 | 1:39.05 | 158176 | 165605
7 | 36:48.06 | 4:50.05 | 165606 | 187360
8 | 41:38.11 | 2:34.37 | 187361 | 198947
9 | 44:12.48 | 2:55.14 | 198948 | 212086
10 | 47:07.62 | 5:03.33 | 212087 | 234844
11 | 52:11.20 | 6:50.34 | 234845 | 265628
12 | 59:01.54 | 9:07.33 | 265629 | 306686
13 | 68:09.12 | 5:42.70 | 306687 | 332406
14 | 73:52.07 | 2:55.54 | 332407 | 345585
Track 1
Filename D:\EAC\01 A1.wav
Pre-gap length 0:00:02.00
Peak level 75.1 %
Extraction speed 5.6 X
Track quality 100.0 %
Test CRC 0DD43B23
Copy CRC 0DD43B23
Copy OK
Track 2
Filename D:\EAC\02 A2.wav
Peak level 84.4 %
Extraction speed 6.4 X
Track quality 100.0 %
Test CRC 8E324527
Copy CRC 8E324527
Copy OK
Track 3
Filename D:\EAC\03 A3.wav
Peak level 61.9 %
Extraction speed 5.4 X
Track quality 99.9 %
Test CRC CC64786E
Copy CRC CC64786E
Copy OK
Track 4
Filename D:\EAC\04 B1.wav
Peak level 76.8 %
Extraction speed 7.3 X
Track quality 100.0 %
Test CRC D93F6951
Copy CRC D93F6951
Copy OK
Track 5
Filename D:\EAC\05 B2.wav
Peak level 74.8 %
Extraction speed 7.7 X
Track quality 100.0 %
Test CRC 86F4313B
Copy CRC 86F4313B
Copy OK
Track 6
Filename D:\EAC\06 Embraceable you.wav
Peak level 68.2 %
Extraction speed 6.2 X
Track quality 100.0 %
Test CRC 964ECC7D
Copy CRC 964ECC7D
Copy OK
Track 7
Filename D:\EAC\07 B3.wav
Peak level 75.0 %
Extraction speed 7.9 X
Track quality 100.0 %
Test CRC BF735951
Copy CRC BF735951
Copy OK
Track 8
Filename D:\EAC\08 Caravan.wav
Peak level 72.5 %
Extraction speed 7.3 X
Track quality 100.0 %
Test CRC 1122564A
Copy CRC 1122564A
Copy OK
Track 9
Filename D:\EAC\09 C1.wav
Peak level 53.5 %
Extraction speed 7.6 X
Track quality 100.0 %
Test CRC D09EFF5E
Copy CRC D09EFF5E
Copy OK
Track 10
Filename D:\EAC\10 C2.wav
Peak level 80.7 %
Extraction speed 7.7 X
Track quality 99.9 %
Test CRC 21A8EF4D
Copy CRC 21A8EF4D
Copy OK
Track 11
Filename D:\EAC\11 C3.wav
Peak level 62.7 %
Extraction speed 9.1 X
Track quality 100.0 %
Test CRC C643AA63
Copy CRC C643AA63
Copy OK
Track 12
Filename D:\EAC\12 D1.wav
Peak level 70.7 %
Extraction speed 9.2 X
Track quality 99.9 %
Test CRC 841E6709
Copy CRC 841E6709
Copy OK
Track 13
Filename D:\EAC\13 D2.wav
Peak level 71.3 %
Extraction speed 9.0 X
Track quality 99.9 %
Test CRC 4065A39C
Copy CRC 4065A39C
Copy OK
Track 14
Filename D:\EAC\14 D3 Pot pourri.wav
Peak level 66.2 %
Extraction speed 9.2 X
Track quality 100.0 %
Test CRC B25E7D24
Copy CRC B25E7D24
Copy OK
No errors occurred
End of status report
==== Log checksum 4BE716EFDE8021ACD4455A3ADCACF0761BE7B04C964379BE33E5D83275AEC832 ====
 
Содержание индексной карты (.CUE)
REM GENRE Jazz
REM DATE 2011
REM DISCID A011FF0E
REM COMMENT "ExactAudioCopy v1.0b3"
PERFORMER "Lol Coxhill"
TITLE "Instant Replay"
FILE "01 A1.wav" WAVE
TRACK 01 AUDIO
TITLE "A1"
PERFORMER "Lol Coxhill"
ISRC FR0LU8200006
INDEX 01 00:00:00
FILE "02 A2.wav" WAVE
TRACK 02 AUDIO
TITLE "A2"
PERFORMER "Lol Coxhill"
ISRC FR0LU8200007
INDEX 01 00:00:00
FILE "03 A3.wav" WAVE
TRACK 03 AUDIO
TITLE "A3"
PERFORMER "Lol Coxhill"
ISRC FR0LU8200008
INDEX 01 00:00:00
FILE "04 B1.wav" WAVE
TRACK 04 AUDIO
TITLE "B1"
PERFORMER "Lol Coxhill"
ISRC FR0LU8200008
INDEX 01 00:00:00
FILE "05 B2.wav" WAVE
TRACK 05 AUDIO
TITLE "B2"
PERFORMER "Lol Coxhill"
ISRC FR0LU8200010
INDEX 01 00:00:00
FILE "06 Embraceable you.wav" WAVE
TRACK 06 AUDIO
TITLE "Embraceable you"
PERFORMER "Lol Coxhill"
ISRC FR0LU8200011
INDEX 01 00:00:00
FILE "07 B3.wav" WAVE
TRACK 07 AUDIO
TITLE "B3"
PERFORMER "Lol Coxhill"
ISRC FR0LU8200012
INDEX 01 00:00:00
FILE "08 Caravan.wav" WAVE
TRACK 08 AUDIO
TITLE "Caravan"
PERFORMER "Lol Coxhill"
ISRC FR0LU8200013
INDEX 01 00:00:00
FILE "09 C1.wav" WAVE
TRACK 09 AUDIO
TITLE "C1"
PERFORMER "Lol Coxhill"
ISRC FR0LU8200014
INDEX 01 00:00:00
FILE "10 C2.wav" WAVE
TRACK 10 AUDIO
TITLE "C2"
PERFORMER "Lol Coxhill"
ISRC FR0LU8200015
INDEX 01 00:00:00
FILE "11 C3.wav" WAVE
TRACK 11 AUDIO
TITLE "C3"
PERFORMER "Lol Coxhill"
ISRC FR0LU8200016
INDEX 01 00:00:00
FILE "12 D1.wav" WAVE
TRACK 12 AUDIO
TITLE "D1"
PERFORMER "Lol Coxhill"
ISRC FR0LU8200017
INDEX 01 00:00:00
FILE "13 D2.wav" WAVE
TRACK 13 AUDIO
TITLE "D2"
PERFORMER "Lol Coxhill"
ISRC FR0LU8200018
INDEX 01 00:00:00
FILE "14 D3 Pot pourri.wav" WAVE
TRACK 14 AUDIO
TITLE "D3 Pot pourri"
PERFORMER "Lol Coxhill"
ISRC FR0LU8200019
INDEX 01 00:00:00
Доп. информация: 1 recorded at Bibliothèque d'Argenteuil, May 13th 1982
2 recorded at Théâtre Dunois, Paris, May 11th 1982
3 recorded at Hotte House, Quimperlé, May 29th 1982
4 recorded at Théâtre Dunois, Paris, November 3rd 1981
5 and 6 recorded at Théâtre Dunois, Paris, May 8th 1982
7 recorded at Eglise de Longwy, Mayth 1982
8 and 9 recorded at Théâtre Dunois, Paris, November 5th 1981
10 recorded at Théâtre Dunois, Paris, November 4th 1981, 9h30
11 recorded at Ecole des Beaux-Arts, Angoulême, May 22nd 1982
12 recorded at Maison de la Culture, Reims, May 23rd 1982
13 recorded at Chapelle de Villedieu, Chantenay-Villedieu, September 4th 1982
14 recorded in Chantenay-Villedieu, 1982
 
Состав
Bass Clarinet, Soprano Saxophone – Louis Sclavis (tracks: 7)
Clarinet – Tony Coe (tracks: 13)
Cornet, Performer [Pelle À Ordures], Voice, Trumpet [Rkan-dun] – Jacques Berrocal (tracks: 12)
Directed By – Pierrick Tanguy (tracks: 3), Yves Rochard (tracks: 14)
Double Bass – Joëlle Léandre (tracks: 1, 13)
Drums – Christian Rollet (tracks: 2), Xavier Jouvelet (tracks: 10)
Ensemble – Bagad De Kemperlé (tracks: 3), La Chantenaysienne (tracks: 14)
Guitar – Raymond Boni (tracks: 11)
Organ, Piano – Emmanuel Bex (tracks: 10)
Percussion, Vocals, Accordion – Sven-Ake Johansson (tracks: 5)
Piano – Misha Mengelberg (tracks: 9)
Sopranino Saxophone – Lol Coxhill (tracks: 14)
Soprano Saxophone – Lol Coxhill (tracks: 1, 2, 4 to 13)
Trombone – Paul Rutherford (tracks: 4)
Voice – Annick Nozati (tracks: 5), Lol Coxhill (tracks: 6)
Приватный:
Нет (DHT включён)
Размер:
358.91 Мб (376,346,703 байт) » файлов: 18
Участники:
0 раздают, 0 качают (0 участников всего)
Внешние участники:
1 раздают, 0 качают (1 участников всего) [ Обновить ]
Есть вопросы - пишите личное сообщение пользователю M0p94ok.
09:31
31
Нет комментариев. Ваш будет первым!