Вы используете незарегистрированную версию компонента "Вкладки"!

Поиск

(Free Improvisation / Avant-Garde Jazz) [CD] Nate Wooley, Dave Rempis, Pascal Niggenkemper, Chris Corsano - From Wolves To Whales - 2015 [Aerophonic Records AR007], FLAC (tracks+.cue), lossless

(Free Improvisation / Avant-Garde Jazz) [CD] Nate Wooley, Dave Rempis, Pascal Niggenkemper, Chris Corsano - From Wolves To Whales - 2015 [Aerophonic Records AR007], FLAC (tracks+.cue), lossless
Треклист:
Wooley - Rempis - Niggenkemper - Corsano - From Wolves To Whales
Жанр: Free Improvisation / Avant-Garde Jazz
Носитель: CD
Страна-производитель диска (релиза): USA
Год издания: 2015
Издатель (лейбл): Aerophonic Records
Номер по каталогу: AR007
Аудиокодек: FLAC (*.flac)
Тип рипа: tracks+.cue
Битрейт аудио: lossless
Продолжительность: 00:51:50
Источник (релизер): what.cd / спасибо 6060842
Наличие сканов в содержимом раздачи: нет
Треклист:
1. Slake (14:57)
2. Serpents Tooth (10:48)
3. Stand Up For Bastard (08:00)
4. Swingin' Apoplexy (07:59)
5. Count Me Out (10:15)
all compositions by Wooley/Rempis/Niggenkemper/Corsano
Доп. информация:
Musicians:
Nate Wooley - trumpet
Dave Rempis - alto saxophone
Pascal Niggenkemper - bass
Chris Corsano - drums
Recorded February 10th, 2014 @ Coral Sound, Long Island City, NY
© 2014 - Wooley/Rempis/Niggenkemper/Corsano
Nate Wooley, Dave Rempis, Pascal Niggenkemper, Chris Corsano - From Wolves To Whales aerophonicrecords.com
Nate Wooley Official Site
Pascal Niggenkemper Official Site
 
... review ...
Having crossed paths around the world many times over the years, Nate Wooley and Dave Rempisfinally realized their long-time intention of forming a band together in the winter of 2014, with a lineup that can only be described as stellar. Featuring some of the leading lights of both the New York and Chicago improvised music scenes, the four members of this quartet, all internationally acclaimed players in their own right, found a common language as a unit right from the start. This first document of their work was made in the studio following three concerts in Manhattan and Brooklyn in February of 2014, and the inventive and a-typical flow of their improvisations shows a band operating at a higher level of creativity from the get-go. Meanwhile, the broad stylistic range that they tackle, from microcosmic sound pallets to passages bounding with unbridled energy, shows a new group with a myriad of musical possibilities already under its belt. From Wolves To Whales, the debut recording by this quartet, sets the stage for a future of fruitful collaborations to come.
~ aerophonicrecords.com
 
Лог создания рипа
X Lossless Decoder version 20141129 (148.1)
XLD extraction logfile from 2015-02-20 11:03:36 +0300
Nate Wooley, Dave Rempis, Pascal Niggenkemper, Chris Corsano / From Wolves To Whales
Used drive : HL-DT-ST DVDRW GX30N (revision RP09)
Media type : Pressed CD
Ripper mode : XLD Secure Ripper
Disable audio cache : OK for the drive with a cache less than 1375KiB
Make use of C2 pointers : NO
Read offset correction : 6
Max retry count : 10000
Gap status : Analyzed, Appended (except HTOA)
TOC of the extracted CD
Track | Start | Length | Start sector | End sector
---------------------------------------------------------
1 | 00:00:00 | 14:56:50 | 0 | 67249
2 | 14:56:50 | 10:49:36 | 67250 | 115960
3 | 25:46:11 | 08:01:49 | 115961 | 152084
4 | 33:47:60 | 08:00:04 | 152085 | 188088
5 | 41:47:64 | 10:22:32 | 188089 | 234770
AccurateRip Summary
Disc not found in AccurateRip DB.
All Tracks
Album gain : -1.62 dB
Peak : 0.998260
Statistics
Read error : 0
Jitter error (maybe fixed) : 0
Retry sector count : 0
Damaged sector count : 0
Track 01
Filename : /Users/Shared/Grabbed/Nate Wooley, Dave Rempis, Pascal Niggenkemper, Chris Corsano - 2015 - From Wolves To Whales [MP3 320]/01 - Slake.mp3
/Users/Shared/Grabbed/Nate Wooley, Dave Rempis, Pascal Niggenkemper, Chris Corsano - 2015 - From Wolves To Whales [FLAC]/01 - Slake.flac
Pre-gap length : 00:02:00
Track gain : -0.20 dB
Peak : 0.998260
CRC32 hash (test run) : 976A4AF6
CRC32 hash : 976A4AF6
CRC32 hash (skip zero) : 3D211F5A
AccurateRip v1 signature : 2C1F43B8
AccurateRip v2 signature : D9E5A7F6
->Track not present in AccurateRip database.
Statistics
Read error : 0
Jitter error (maybe fixed) : 0
Retry sector count : 0
Damaged sector count : 0
Track 02
Filename : /Users/Shared/Grabbed/Nate Wooley, Dave Rempis, Pascal Niggenkemper, Chris Corsano - 2015 - From Wolves To Whales [MP3 320]/02 - Serpents Tooth.mp3
/Users/Shared/Grabbed/Nate Wooley, Dave Rempis, Pascal Niggenkemper, Chris Corsano - 2015 - From Wolves To Whales [FLAC]/02 - Serpents Tooth.flac
Pre-gap length : 00:05:00
Track gain : -1.21 dB
Peak : 0.997131
CRC32 hash (test run) : F5D7E093
CRC32 hash : F5D7E093
CRC32 hash (skip zero) : 1A6CA29D
AccurateRip v1 signature : B611A1DC
AccurateRip v2 signature : 0E1C152D
->Track not present in AccurateRip database.
Statistics
Read error : 0
Jitter error (maybe fixed) : 0
Retry sector count : 0
Damaged sector count : 0
Track 03
Filename : /Users/Shared/Grabbed/Nate Wooley, Dave Rempis, Pascal Niggenkemper, Chris Corsano - 2015 - From Wolves To Whales [MP3 320]/03 - Stand Up For Bastard.mp3
/Users/Shared/Grabbed/Nate Wooley, Dave Rempis, Pascal Niggenkemper, Chris Corsano - 2015 - From Wolves To Whales [FLAC]/03 - Stand Up For Bastard.flac
Pre-gap length : 00:05:00
Track gain : -1.08 dB
Peak : 0.986053
CRC32 hash (test run) : 2BE5CE72
CRC32 hash : 2BE5CE72
CRC32 hash (skip zero) : 57BDB3BE
AccurateRip v1 signature : F4BEC36D
AccurateRip v2 signature : 8A27FFA1
->Track not present in AccurateRip database.
Statistics
Read error : 0
Jitter error (maybe fixed) : 0
Retry sector count : 0
Damaged sector count : 0
Track 04
Filename : /Users/Shared/Grabbed/Nate Wooley, Dave Rempis, Pascal Niggenkemper, Chris Corsano - 2015 - From Wolves To Whales [MP3 320]/04 - Swingin' Apoplexy.mp3
/Users/Shared/Grabbed/Nate Wooley, Dave Rempis, Pascal Niggenkemper, Chris Corsano - 2015 - From Wolves To Whales [FLAC]/04 - Swingin' Apoplexy.flac
Pre-gap length : 00:05:00
Track gain : 1.42 dB
Peak : 0.893433
CRC32 hash (test run) : F7CCB7CF
CRC32 hash : F7CCB7CF
CRC32 hash (skip zero) : 00345BDE
AccurateRip v1 signature : 75AA093A
AccurateRip v2 signature : E41A91DD
->Track not present in AccurateRip database.
Statistics
Read error : 0
Jitter error (maybe fixed) : 0
Retry sector count : 0
Damaged sector count : 0
Track 05
Filename : /Users/Shared/Grabbed/Nate Wooley, Dave Rempis, Pascal Niggenkemper, Chris Corsano - 2015 - From Wolves To Whales [MP3 320]/05 - Count Me Out.mp3
/Users/Shared/Grabbed/Nate Wooley, Dave Rempis, Pascal Niggenkemper, Chris Corsano - 2015 - From Wolves To Whales [FLAC]/05 - Count Me Out.flac
Pre-gap length : 00:05:00
Track gain : -3.00 dB
Peak : 0.996857
CRC32 hash (test run) : A42BFA82
CRC32 hash : A42BFA82
CRC32 hash (skip zero) : 2718BBA2
AccurateRip v1 signature : D9ADFB33
AccurateRip v2 signature : F894D2C1
->Track not present in AccurateRip database.
Statistics
Read error : 0
Jitter error (maybe fixed) : 0
Retry sector count : 0
Damaged sector count : 0
No errors occurred
End of status report
-----BEGIN XLD SIGNATURE-----
9e3Ft9Iy0SB6cZQqdqmHijh8OCBPUin_NHkqS_2FZIFiwmd_yf19PAdu5cjtDYiwb..KsfH6lYQ6otSvEgdurnRTAkFoCEhh1JlO9KC
-----END XLD SIGNATURE-----
 
Содержание индексной карты (.CUE)
TITLE "From Wolves To Whales"
PERFORMER "Nate Wooley, Dave Rempis, Pascal Niggenkemper, Chris Corsano"
REM GENRE "Free Jazz"
REM DATE "2015"
REM DISCID 4A0C3A05
REM REPLAYGAIN_ALBUM_GAIN -1.62 dB
REM REPLAYGAIN_ALBUM_PEAK 0.998260
FILE "01 - Slake.flac" WAVE
TRACK 01 AUDIO
TITLE "Slake"
PERFORMER "Nate Wooley, Dave Rempis, Pascal Niggenkemper, Chris Corsano"
ISRC QMCYT1300701
REM REPLAYGAIN_TRACK_GAIN -0.20 dB
REM REPLAYGAIN_TRACK_PEAK 0.998260
INDEX 01 00:00:00
TRACK 02 AUDIO
TITLE "Serpents Tooth"
PERFORMER "Nate Wooley, Dave Rempis, Pascal Niggenkemper, Chris Corsano"
ISRC QMCYT1300702
REM REPLAYGAIN_TRACK_GAIN -1.21 dB
REM REPLAYGAIN_TRACK_PEAK 0.997131
INDEX 00 14:51:50
FILE "02 - Serpents Tooth.flac" WAVE
INDEX 01 00:00:00
TRACK 03 AUDIO
TITLE "Stand Up For Bastard"
PERFORMER "Nate Wooley, Dave Rempis, Pascal Niggenkemper, Chris Corsano"
ISRC QMCYT1300703
REM REPLAYGAIN_TRACK_GAIN -1.08 dB
REM REPLAYGAIN_TRACK_PEAK 0.986053
INDEX 00 10:44:36
FILE "03 - Stand Up For Bastard.flac" WAVE
INDEX 01 00:00:00
TRACK 04 AUDIO
TITLE "Swingin' Apoplexy"
PERFORMER "Nate Wooley, Dave Rempis, Pascal Niggenkemper, Chris Corsano"
ISRC QMCYT1300704
REM REPLAYGAIN_TRACK_GAIN 1.42 dB
REM REPLAYGAIN_TRACK_PEAK 0.893433
INDEX 00 07:56:49
FILE "04 - Swingin' Apoplexy.flac" WAVE
INDEX 01 00:00:00
TRACK 05 AUDIO
TITLE "Count Me Out"
PERFORMER "Nate Wooley, Dave Rempis, Pascal Niggenkemper, Chris Corsano"
ISRC QMCYT1300705
REM REPLAYGAIN_TRACK_GAIN -3.00 dB
REM REPLAYGAIN_TRACK_PEAK 0.996857
INDEX 00 07:55:04
FILE "05 - Count Me Out.flac" WAVE
INDEX 01 00:00:00
По всем вопросам пишите личное сообщение пользователю M0p94ok.
09:32
252
Нет комментариев. Ваш будет первым!