Вы используете незарегистрированную версию компонента "Вкладки"!

Поиск

(Free Improvisation / Avant-Garde Jazz) [CD] Luis Lopes, Adam Lane, Igal Foni - What is When - 2009, FLAC (tracks+.cue), lossless

(Free Improvisation / Avant-Garde Jazz) [CD] Luis Lopes, Adam Lane, Igal Foni - What is When - 2009, FLAC (tracks+.cue), lossless
Треклист:
Luís Lopes, Adam Lane, Igal Foni - What is When
Жанр: Free Improvisation / Avant-Garde Jazz
Носитель: CD
Страна-производитель диска (релиза): Portugal
Год издания: 2009
Издатель (лейбл): Clean Feed
Номер по каталогу: CF146CD
Аудиокодек: FLAC (*.flac)
Тип рипа: tracks+.cue
Битрейт аудио: lossless
Продолжительность: 00:47:10
Источник (релизер): what.cd / спасибо 6060842
Наличие сканов в содержимом раздачи: нет
Треклист:
1. Evolution Motive (For Charles Darwin and Sonny Sharrock) (04:03)
2. Spontaneous Combustion (04:07)
3. Cerejeiras (08:01)
4. Eufoni (00:59)
5. The Siege (04:24)
6. Street Clown Girl (06:37)
7. Melodic 8 (08:32)
8. ChiChi Rides The Tiger (05:24)
9. Perched Upon An Electric Wire (05:06)
Доп. информация:
Musicians:
Luís Lopes - electric guitar
Adam Lane - double bass
Igal Foni - drums
1, 2, 4, 6 recorded 24th September 2007 on Park West Studios, Broklyn, New York
3, 5, 7, 8, 9 recorded 1st July 2008 on Som de Lisboa Studios, Lisbon, Portugal
Mixed at Namouche Studios, Lisbon, March 2009
Luís Lopes, Adam Lane, Igal Foni - What is When cleanfeed-records.com
Luís Lopes, Adam Lane, Igal Foni - What is When freejazzblog.org
Adam Lane Official Site
 
... photo ...


 
... review ...
In music, the art of time, you necessarily find the “what” in the “when”. And the “what / when” factor, here, is a jumpy, unquiet, syncopated music coming from the same sources which originated both the Delta and the Chicago blues, the most primordial rock 'n' roll, hardcore punk and free jazz: guts and nerves. So, it's with no real surprise that Portuguese guitarrist Luís Lopes, American contrabassist Adam Lane and Israeli drummer Igal Foni play a strange hybrid of all those styles. Maybe the jazz element is the concrete assembling everything else in this CD, but it's also true that the purpose was to form a power trio, just like the ones celebrated in the history of rock: Jimi Hendrix's Band of Gypsys and Experience, Cream, Blue Cheer, Rush and Motorhead are good examples. Or Sex Pistols, without the vocalist. And a power trio indeed we have, sometimes brutal, but not making things to easy (the rhythms are quite complex, nothing a teenage garage band can do), with no unnecessary ornamentations but evident efficacy. This is emotional, raw, in-your-face music, with lots of feedback and distortion and astonishing solos. When the risk to get tired with all the run turns a menace, they give you some moments of piece, but even in those softer interludes they grab your heart and mind and take it off.
~ cleanfeed-records.com
 
Лог создания рипа
X Lossless Decoder version 20130407 (143.0)
XLD extraction logfile from 2013-05-07 23:47:09 +0400
Luís Lopes, Adam Lane, Igal Foni / What Is When
Used drive : HL-DT-ST DVDRW GX30N (revision RP09)
Media type : Pressed CD
Ripper mode : XLD Secure Ripper
Disable audio cache : OK for the drive with a cache less than 1375KiB
Make use of C2 pointers : NO
Read offset correction : 6
Max retry count : 20
Gap status : Analyzed, Appended
TOC of the extracted CD
Track | Start | Length | Start sector | End sector
---------------------------------------------------------
1 | 00:00:00 | 04:03:10 | 0 | 18234
2 | 04:03:10 | 04:07:05 | 18235 | 36764
3 | 08:10:15 | 08:01:17 | 36765 | 72856
4 | 16:11:32 | 00:59:29 | 72857 | 77310
5 | 17:10:61 | 04:34:39 | 77311 | 97899
6 | 21:45:25 | 06:37:12 | 97900 | 127686
7 | 28:22:37 | 08:32:45 | 127687 | 166131
8 | 36:55:07 | 05:24:59 | 166132 | 190490
9 | 42:19:66 | 05:06:22 | 190491 | 213462
AccurateRip Summary
Disc not found in AccurateRip DB.
All Tracks
Album gain : -5.60 dB
Peak : 0.988953
Statistics
Read error : 0
Jitter error (maybe fixed) : 0
Retry sector count : 0
Damaged sector count : 0
Track 01
Filename : /Users/anch/Music/FLAC/Luís Lopes, Adam Lane, Igal Foni - 2009 - What Is When [FLAC]/01 - Evolution Motive (For Charles Darwin and Sonny Sharrock).flac
/Users/anch/Music/FLAC/Luís Lopes, Adam Lane, Igal Foni - 2009 - What Is When [MP3 320]/01 - Evolution Motive (For Charles Darwin and Sonny Sharrock).mp3
/Users/anch/Music/FLAC/Luís Lopes, Adam Lane, Igal Foni - 2009 - What Is When [MP3 V0]/01 - Evolution Motive (For Charles Darwin and Sonny Sharrock).mp3
Pre-gap length : 00:02:00
Track gain : -6.14 dB
Peak : 0.988861
CRC32 hash (test run) : BD85C970
CRC32 hash : BD85C970
CRC32 hash (skip zero) : E0037EE2
AccurateRip v1 signature : 0A6008BE
AccurateRip v2 signature : 46269904
->Track not present in AccurateRip database.
Statistics
Read error : 0
Jitter error (maybe fixed) : 0
Retry sector count : 0
Damaged sector count : 0
Track 02
Filename : /Users/anch/Music/FLAC/Luís Lopes, Adam Lane, Igal Foni - 2009 - What Is When [FLAC]/02 - Spontaneous Combustion.flac
/Users/anch/Music/FLAC/Luís Lopes, Adam Lane, Igal Foni - 2009 - What Is When [MP3 320]/02 - Spontaneous Combustion.mp3
/Users/anch/Music/FLAC/Luís Lopes, Adam Lane, Igal Foni - 2009 - What Is When [MP3 V0]/02 - Spontaneous Combustion.mp3
Pre-gap length : 00:02:00
Track gain : -5.06 dB
Peak : 0.988800
CRC32 hash (test run) : DDCEC5AD
CRC32 hash : DDCEC5AD
CRC32 hash (skip zero) : BE3BF6A2
AccurateRip v1 signature : 61F579AB
AccurateRip v2 signature : 2F52BAB4
->Track not present in AccurateRip database.
Statistics
Read error : 0
Jitter error (maybe fixed) : 0
Retry sector count : 0
Damaged sector count : 0
Track 03
Filename : /Users/anch/Music/FLAC/Luís Lopes, Adam Lane, Igal Foni - 2009 - What Is When [FLAC]/03 - Cerejeiras.flac
/Users/anch/Music/FLAC/Luís Lopes, Adam Lane, Igal Foni - 2009 - What Is When [MP3 320]/03 - Cerejeiras.mp3
/Users/anch/Music/FLAC/Luís Lopes, Adam Lane, Igal Foni - 2009 - What Is When [MP3 V0]/03 - Cerejeiras.mp3
Pre-gap length : 00:02:00
Track gain : 4.37 dB
Peak : 0.554199
CRC32 hash (test run) : 83B32FD6
CRC32 hash : 83B32FD6
CRC32 hash (skip zero) : 2BE211C4
AccurateRip v1 signature : 2CA903B6
AccurateRip v2 signature : 97141C5E
->Track not present in AccurateRip database.
Statistics
Read error : 0
Jitter error (maybe fixed) : 0
Retry sector count : 0
Damaged sector count : 0
Track 04
Filename : /Users/anch/Music/FLAC/Luís Lopes, Adam Lane, Igal Foni - 2009 - What Is When [FLAC]/04 - Eufoni.flac
/Users/anch/Music/FLAC/Luís Lopes, Adam Lane, Igal Foni - 2009 - What Is When [MP3 320]/04 - Eufoni.mp3
/Users/anch/Music/FLAC/Luís Lopes, Adam Lane, Igal Foni - 2009 - What Is When [MP3 V0]/04 - Eufoni.mp3
Pre-gap length : 00:02:00
Track gain : 0.60 dB
Peak : 0.832886
CRC32 hash (test run) : ABAAEF15
CRC32 hash : ABAAEF15
CRC32 hash (skip zero) : 7B6BB30C
AccurateRip v1 signature : F2436A98
AccurateRip v2 signature : 57BC7070
->Track not present in AccurateRip database.
Statistics
Read error : 0
Jitter error (maybe fixed) : 0
Retry sector count : 0
Damaged sector count : 0
Track 05
Filename : /Users/anch/Music/FLAC/Luís Lopes, Adam Lane, Igal Foni - 2009 - What Is When [FLAC]/05 - The Siege.flac
/Users/anch/Music/FLAC/Luís Lopes, Adam Lane, Igal Foni - 2009 - What Is When [MP3 320]/05 - The Siege.mp3
/Users/anch/Music/FLAC/Luís Lopes, Adam Lane, Igal Foni - 2009 - What Is When [MP3 V0]/05 - The Siege.mp3
Pre-gap length : 00:02:00
Track gain : -6.93 dB
Peak : 0.988953
CRC32 hash (test run) : 37EE00AD
CRC32 hash : 37EE00AD
CRC32 hash (skip zero) : 0AF7907C
AccurateRip v1 signature : A8CA7CC7
AccurateRip v2 signature : CFBFBF93
->Track not present in AccurateRip database.
Statistics
Read error : 0
Jitter error (maybe fixed) : 0
Retry sector count : 0
Damaged sector count : 0
Track 06
Filename : /Users/anch/Music/FLAC/Luís Lopes, Adam Lane, Igal Foni - 2009 - What Is When [FLAC]/06 - Street Clown Girl.flac
/Users/anch/Music/FLAC/Luís Lopes, Adam Lane, Igal Foni - 2009 - What Is When [MP3 320]/06 - Street Clown Girl.mp3
/Users/anch/Music/FLAC/Luís Lopes, Adam Lane, Igal Foni - 2009 - What Is When [MP3 V0]/06 - Street Clown Girl.mp3
Pre-gap length : 00:02:00
Track gain : -3.61 dB
Peak : 0.988770
CRC32 hash (test run) : A52E307B
CRC32 hash : A52E307B
CRC32 hash (skip zero) : 33E74B72
AccurateRip v1 signature : 42471B7C
AccurateRip v2 signature : C8F37BB4
->Track not present in AccurateRip database.
Statistics
Read error : 0
Jitter error (maybe fixed) : 0
Retry sector count : 0
Damaged sector count : 0
Track 07
Filename : /Users/anch/Music/FLAC/Luís Lopes, Adam Lane, Igal Foni - 2009 - What Is When [FLAC]/07 - Melodic 8.flac
/Users/anch/Music/FLAC/Luís Lopes, Adam Lane, Igal Foni - 2009 - What Is When [MP3 320]/07 - Melodic 8.mp3
/Users/anch/Music/FLAC/Luís Lopes, Adam Lane, Igal Foni - 2009 - What Is When [MP3 V0]/07 - Melodic 8.mp3
Pre-gap length : 00:02:00
Track gain : 0.58 dB
Peak : 0.988678
CRC32 hash (test run) : 2B044C22
CRC32 hash : 2B044C22
CRC32 hash (skip zero) : C301F9F5
AccurateRip v1 signature : 2649BA97
AccurateRip v2 signature : 73743761
->Track not present in AccurateRip database.
Statistics
Read error : 0
Jitter error (maybe fixed) : 0
Retry sector count : 0
Damaged sector count : 0
Track 08
Filename : /Users/anch/Music/FLAC/Luís Lopes, Adam Lane, Igal Foni - 2009 - What Is When [FLAC]/08 - ChiChi Rides The Tiger.flac
/Users/anch/Music/FLAC/Luís Lopes, Adam Lane, Igal Foni - 2009 - What Is When [MP3 320]/08 - ChiChi Rides The Tiger.mp3
/Users/anch/Music/FLAC/Luís Lopes, Adam Lane, Igal Foni - 2009 - What Is When [MP3 V0]/08 - ChiChi Rides The Tiger.mp3
Pre-gap length : 00:02:00
Track gain : -3.69 dB
Peak : 0.988922
CRC32 hash (test run) : 7537D718
CRC32 hash : 7537D718
CRC32 hash (skip zero) : 86391E7F
AccurateRip v1 signature : 65C9CCE0
AccurateRip v2 signature : 8117D9E1
->Track not present in AccurateRip database.
Statistics
Read error : 0
Jitter error (maybe fixed) : 0
Retry sector count : 0
Damaged sector count : 0
Track 09
Filename : /Users/anch/Music/FLAC/Luís Lopes, Adam Lane, Igal Foni - 2009 - What Is When [FLAC]/09 - Perched Upon An Electric Wire.flac
/Users/anch/Music/FLAC/Luís Lopes, Adam Lane, Igal Foni - 2009 - What Is When [MP3 320]/09 - Perched Upon An Electric Wire.mp3
/Users/anch/Music/FLAC/Luís Lopes, Adam Lane, Igal Foni - 2009 - What Is When [MP3 V0]/09 - Perched Upon An Electric Wire.mp3
Pre-gap length : 00:02:00
Track gain : -7.50 dB
Peak : 0.988708
CRC32 hash (test run) : BE43687A
CRC32 hash : BE43687A
CRC32 hash (skip zero) : 595EFBE9
AccurateRip v1 signature : CAC557B6
AccurateRip v2 signature : 3FBA4C90
->Track not present in AccurateRip database.
Statistics
Read error : 0
Jitter error (maybe fixed) : 0
Retry sector count : 0
Damaged sector count : 0
No errors occurred
End of status report
 
Содержание индексной карты (.CUE)
TITLE "What Is When"
PERFORMER "Luis Lopes, Adam Lane, Igal Foni"
REM GENRE "Free Jazz"
REM DATE "2009"
REM DISCNUMBER 1
REM TOTALDISCS 1
REM DISCID 640B1E09
REM REPLAYGAIN_ALBUM_GAIN -5.60 dB
REM REPLAYGAIN_ALBUM_PEAK 0.988953
FILE "01 - Evolution Motive (For Charles Darwin and Sonny Sharrock).flac" WAVE
TRACK 01 AUDIO
TITLE "Evolution Motive (For Charles Darwin and Sonny Sharrock)"
PERFORMER "Luis Lopes, Adam Lane, Igal Foni"
REM REPLAYGAIN_TRACK_GAIN -6.14 dB
REM REPLAYGAIN_TRACK_PEAK 0.988861
INDEX 01 00:00:00
TRACK 02 AUDIO
TITLE "Spontaneous Combustion"
PERFORMER "Luis Lopes, Adam Lane, Igal Foni"
REM REPLAYGAIN_TRACK_GAIN -5.06 dB
REM REPLAYGAIN_TRACK_PEAK 0.988800
INDEX 00 04:01:10
FILE "02 - Spontaneous Combustion.flac" WAVE
INDEX 01 00:00:00
TRACK 03 AUDIO
TITLE "Cerejeiras"
PERFORMER "Luis Lopes, Adam Lane, Igal Foni"
REM REPLAYGAIN_TRACK_GAIN 4.37 dB
REM REPLAYGAIN_TRACK_PEAK 0.554199
INDEX 00 04:05:05
FILE "03 - Cerejeiras.flac" WAVE
INDEX 01 00:00:00
TRACK 04 AUDIO
TITLE "Eufoni"
PERFORMER "Luis Lopes, Adam Lane, Igal Foni"
REM REPLAYGAIN_TRACK_GAIN 0.60 dB
REM REPLAYGAIN_TRACK_PEAK 0.832886
INDEX 00 07:59:17
FILE "04 - Eufoni.flac" WAVE
INDEX 01 00:00:00
TRACK 05 AUDIO
TITLE "The Siege"
PERFORMER "Luis Lopes, Adam Lane, Igal Foni"
REM REPLAYGAIN_TRACK_GAIN -6.93 dB
REM REPLAYGAIN_TRACK_PEAK 0.988953
INDEX 00 00:57:29
FILE "05 - The Siege.flac" WAVE
INDEX 01 00:00:00
TRACK 06 AUDIO
TITLE "Street Clown Girl"
PERFORMER "Luis Lopes, Adam Lane, Igal Foni"
REM REPLAYGAIN_TRACK_GAIN -3.61 dB
REM REPLAYGAIN_TRACK_PEAK 0.988770
INDEX 00 04:32:39
FILE "06 - Street Clown Girl.flac" WAVE
INDEX 01 00:00:00
TRACK 07 AUDIO
TITLE "Melodic 8"
PERFORMER "Luis Lopes, Adam Lane, Igal Foni"
REM REPLAYGAIN_TRACK_GAIN 0.58 dB
REM REPLAYGAIN_TRACK_PEAK 0.988678
INDEX 00 06:35:12
FILE "07 - Melodic 8.flac" WAVE
INDEX 01 00:00:00
TRACK 08 AUDIO
TITLE "ChiChi Rides The Tiger"
PERFORMER "Luis Lopes, Adam Lane, Igal Foni"
REM REPLAYGAIN_TRACK_GAIN -3.69 dB
REM REPLAYGAIN_TRACK_PEAK 0.988922
INDEX 00 08:30:45
FILE "08 - ChiChi Rides The Tiger.flac" WAVE
INDEX 01 00:00:00
TRACK 09 AUDIO
TITLE "Perched Upon An Electric Wire"
PERFORMER "Luis Lopes, Adam Lane, Igal Foni"
REM REPLAYGAIN_TRACK_GAIN -7.50 dB
REM REPLAYGAIN_TRACK_PEAK 0.988708
INDEX 00 05:22:59
FILE "09 - Perched Upon An Electric Wire.flac" WAVE
INDEX 01 00:00:00
По всем вопросам пишите личное сообщение пользователю M0p94ok.
09:31
216
Нет комментариев. Ваш будет первым!