Вы используете незарегистрированную версию компонента "Вкладки"!

Поиск

(Free Jazz, Free Improvisation) [CD] Kaol Abe (Kaoru Abe / 阿部薫) - Partitas-Unfinished (Partitas / 彗星) - 1973, FLAC (tracks+.cue), lossless

(Free Jazz, Free Improvisation) [CD] Kaol Abe (Kaoru Abe / 阿部薫) - Partitas-Unfinished (Partitas / 彗星) - 1973, FLAC (tracks+.cue), lossless
Треклист:
Kaol Abe (Kaoru Abe / 阿部薫) - Partitas-Unfinished (Partitas / 彗星) 1973
Жанр: Free Jazz, Free Improvisation
Носитель: CD
Страна-производитель диска: Japan
Год издания: 2002
Издатель (лейбл): Kenroad Music
Номер по каталогу: AOCD 1107-8
Страна: Japan
Аудиокодек: FLAC (*.flac)
Тип рипа: tracks+.cue
Битрейт аудио: lossless
Продолжительность: 01:17:57
Источник (релизер): рип мой. диск тоже.
Наличие сканов в содержимом раздачи: да, фото
Треклист:
CD1:
01. α [alpha] (23:26)
02. β [Beta] (17:39)
CD2:
01. γ [Gamma] (17:23)
02. δ [Delta] ~ Sunrise Sunset (19:28)
 
Лог создания рипа
 
CD1
Exact Audio Copy V1.0 beta 1 from 15. November 2010
EAC extraction logfile from 16. March 2014, 22:16
Kaol Abe / Partitas-Unfinished, CD1
Used drive : Optiarc DVD RW AD-7200A Adapter: 0 ID: 0
Read mode : Secure
Utilize accurate stream : Yes
Defeat audio cache : Yes
Make use of C2 pointers : No
Read offset correction : 48
Overread into Lead-In and Lead-Out : No
Fill up missing offset samples with silence : Yes
Delete leading and trailing silent blocks : No
Null samples used in CRC calculations : Yes
Used interface : Native Win32 interface for Win NT & 2000
Gap handling : Appended to previous track
Used output format : User Defined Encoder
Selected bitrate : 768 kBit/s
Quality : High
Add ID3 tag : No
Command line compressor : C:\Program Files\Exact Audio Copy\Flac\flac.exe
Additional command line options : -8 -V -T "ARTIST=%a" -T "TITLE=%t" -T "ALBUM=%g" -T "DATE=%y" -T "TRACKNUMBER=%n" -T "TOTALTRACKS=%x" -T "GENRE=%m" -T "ALBUMARTIST=%v" -T "ALBUM ARTIST=%v" -T "COMMENT=EAC Secure Mode, Test & Copy, AccurateRip, FLAC -8" %s
TOC of the extracted CD
Track | Start | Length | Start sector | End sector
---------------------------------------------------------
1 | 0:00.00 | 23:26.27 | 0 | 105476
2 | 23:26.27 | 17:39.15 | 105477 | 184916
Track 1
Filename D:\Abe Kaol (Kaoru Abe) - Partitas-Unfinished (1973) [FLAC]\CD1\01 - alpha.wav
Pre-gap length 0:00:02.00
Peak level 79.0 %
Extraction speed 18.3 X
Track quality 100.0 %
Test CRC 5CB0AFF5
Copy CRC 5CB0AFF5
Track not present in AccurateRip database
Copy OK
Track 2
Filename D:\Abe Kaol (Kaoru Abe) - Partitas-Unfinished (1973) [FLAC]\CD1\02 - Beta.wav
Pre-gap length 0:00:03.07
Peak level 78.4 %
Extraction speed 24.6 X
Track quality 100.0 %
Test CRC 4308579F
Copy CRC 4308579F
Track not present in AccurateRip database
Copy OK
None of the tracks are present in the AccurateRip database
No errors occurred
End of status report
==== Log checksum 40D1151F3838F382EBD82B704739470672F2B6A277FB77EFD821F3B4F12F6FDD ====
 
CD2
Exact Audio Copy V1.0 beta 1 from 15. November 2010
EAC extraction logfile from 16. March 2014, 23:13
Kaol Abe / Partitas-Unfinished, CD2
Used drive : Optiarc DVD RW AD-7200A Adapter: 0 ID: 0
Read mode : Secure
Utilize accurate stream : Yes
Defeat audio cache : Yes
Make use of C2 pointers : No
Read offset correction : 48
Overread into Lead-In and Lead-Out : No
Fill up missing offset samples with silence : Yes
Delete leading and trailing silent blocks : No
Null samples used in CRC calculations : Yes
Used interface : Native Win32 interface for Win NT & 2000
Gap handling : Appended to previous track
Used output format : User Defined Encoder
Selected bitrate : 768 kBit/s
Quality : High
Add ID3 tag : No
Command line compressor : C:\Program Files\Exact Audio Copy\Flac\flac.exe
Additional command line options : -8 -V -T "ARTIST=%a" -T "TITLE=%t" -T "ALBUM=%g" -T "DATE=%y" -T "TRACKNUMBER=%n" -T "TOTALTRACKS=%x" -T "GENRE=%m" -T "ALBUMARTIST=%v" -T "ALBUM ARTIST=%v" -T "COMMENT=EAC Secure Mode, Test & Copy, AccurateRip, FLAC -8" %s
TOC of the extracted CD
Track | Start | Length | Start sector | End sector
---------------------------------------------------------
1 | 0:00.00 | 17:23.17 | 0 | 78241
2 | 17:23.17 | 19:27.68 | 78242 | 165834
Track 1
Filename D:\Abe Kaol (Kaoru Abe) - Partitas-Unfinished (1973) [FLAC]\CD2\01 - Gamma.wav
Pre-gap length 0:00:02.00
Peak level 80.2 %
Extraction speed 17.1 X
Track quality 100.0 %
Test CRC 1099F903
Copy CRC 1099F903
Cannot be verified as accurate (confidence 1) [73C6A401], AccurateRip returned [6ADE6728]
Copy OK
Track 2
Filename D:\Abe Kaol (Kaoru Abe) - Partitas-Unfinished (1973) [FLAC]\CD2\02 - Delta.wav
Pre-gap length 0:00:03.37
Peak level 77.0 %
Extraction speed 23.3 X
Track quality 100.0 %
Test CRC 2CD0ED52
Copy CRC 2CD0ED52
Cannot be verified as accurate (confidence 1) [341041F4], AccurateRip returned [9F0E7C1A]
Copy OK
No tracks could be verified as accurate
You may have a different pressing from the one(s) in the database
No errors occurred
End of status report
==== Log checksum 7E4CF1BC0322171B863DD8AD8D6A3721C43CEC8CCED02D3AB7DC49D3DBF73980 ====
 
Содержание индексной карты (.CUE)
 
CD1
REM GENRE Jazz
REM DATE 1973
REM DISCID 0F09A102
REM COMMENT "ExactAudioCopy v1.0b1"
PERFORMER "Kaol Abe"
TITLE "Partitas-Unfinished, CD1"
FILE "01 - alpha.wav" WAVE
TRACK 01 AUDIO
TITLE "alpha"
PERFORMER "Kaol Abe"
INDEX 01 00:00:00
TRACK 02 AUDIO
TITLE "Beta"
PERFORMER "Kaol Abe"
INDEX 00 23:23:20
FILE "02 - Beta.wav" WAVE
INDEX 01 00:00:00
 
CD2
REM GENRE Jazz
REM DATE 1973
REM DISCID 0C08A302
REM COMMENT "ExactAudioCopy v1.0b1"
PERFORMER "Kaol Abe"
TITLE "Partitas-Unfinished, CD2"
FILE "01 - Gamma.wav" WAVE
TRACK 01 AUDIO
TITLE "Gamma"
PERFORMER "Kaol Abe"
INDEX 01 00:00:00
TRACK 02 AUDIO
TITLE "Delta"
PERFORMER "Kaol Abe"
INDEX 00 17:19:55
FILE "02 - Delta.wav" WAVE
INDEX 01 00:00:00
 
Об альбоме (сборнике)
Another title/subtitle: "Partitas-Unfinished", "-Well-tempered Alto-saxophone Suite, unaccompanied & unfinished-".
Includes two four-fold inserts with commentary on Abe by Milford Graves, Frank Lowe, Arthur Blythe, Sirone, Billy Bang, Lee Konitz, Takehisa Kosugi, Ryuichi Sakamoto, Toshinori Kondo and others.
Abe Kaoru's name is misspelled Abe Kaol on this release.
Originally released as a double LP by Nadja [PA-6137~38] in 1981.
An isolated alto saxophonist who had worked in Japanese avant-garde jazz scene in the 1970s and died young at age 29 in 1978. After debuting in "Kaitai-teki Kohkan (New Direction)" (1970) with Masayuki Takayanagi (guitar), he had played with Motoharu Yoshizawa (bass), Yosuke Yamashita (piano), Toshinori Kondo (trumpet), Milford Graves (drums) and Derek Bailey (guitar). This is a solo album recorded in 1973 and released in 1981 as 2 LPs (later reissued as 2 CDs). A ferocious and dense free improvisation as if to attain the ultimate in alto saxophone playing speed. Recommended to those who like Albert Ayler and John Zorn.
Доп. информация: Recorded on March 1973 at act's 105, Tokyo.
По всем вопросам пишите личное сообщение пользователю M0p94ok.
00:22
185
Нет комментариев. Ваш будет первым!