Вы используете незарегистрированную версию компонента "Вкладки"!

Поиск

(Avant-Garde, Free Improvisation) [CD] John Hollenbeck, Alban Darche, Sebastien Boisseau, Samuel Blaser - JASS - 2013, FLAC (tracks+.cue), lossless

(Avant-Garde, Free Improvisation) [CD] John Hollenbeck, Alban Darche, Sebastien Boisseau, Samuel Blaser - JASS - 2013, FLAC (tracks+.cue), lossless
Треклист:
John Hollenbeck, Alban Darche, Sébastien Boisseau, Samuel Blaser / JASS
Жанр: Avant-Garde, Free Improvisation
Носитель: CD
Страна-производитель диска: France
Год издания: 2013
Издатель (лейбл): Yolk Records
Номер по каталогу: J2059
Аудиокодек: FLAC (*.flac)
Тип рипа: tracks+.cue
Битрейт аудио: lossless
Продолжительность: 49:26
Источник (релизер): я
Наличие сканов в содержимом раздачи: да
Треклист:
01. Recurring Dreams (Samuel Blaser) 4:55
02. SAJ’S (Alban Darche) 3:08
03. Jazz Envy (John Hollenbeck) 5:27
04. Water (Alban Darche) 5:36
05. Limp Mint (John Hollenbeck) 6:38
06. Driving License (Alban Darche) 5:46
07. No D (John Hollenbeck) 6:16
08. Miss Univers 2031 (Alban Darche) 4:50
09. It Began to Get Dark (Samuel Blaser) 3:26
10. Tricéphale (Alban Darche) 3:25
Recorded January 27th 2012 in the afternoon by Olivier Ménard.
John Hollenbeck – Drums & Percussion
Alban Darche – Tenor Saxophone
Samuel Blaser – Trombone
Sébastien Boisseau – Double Bass
 
Лог создания рипа
Exact Audio Copy V1.0 beta 3 from 29. August 2011
EAC extraction logfile from 18. March 2014, 17:13
John Hollenbeck - Alban Darche - Samuel Blaser - Sébastien Boisseau / JASS
Used drive : SlimtypeeNAU508 5 Adapter: 1 ID: 0
Read mode : Secure
Utilize accurate stream : Yes
Defeat audio cache : Yes
Make use of C2 pointers : No
Read offset correction : 6
Overread into Lead-In and Lead-Out : No
Fill up missing offset samples with silence : Yes
Delete leading and trailing silent blocks : No
Null samples used in CRC calculations : Yes
Used interface : Native Win32 interface for Win NT & 2000
Gap handling : Appended to previous track
Used output format : User Defined Encoder
Selected bitrate : 768 kBit/s
Quality : High
Add ID3 tag : No
Command line compressor : C:\Program Files (x86)\Exact Audio Copy\Flac\flac.exe
Additional command line options : -8 -V -T "ARTIST=%artist%" -T "TITLE=%title%" -T "ALBUM=%albumtitle%" -T "DATE=%year%" -T "TRACKNUMBER=%tracknr%" -T "TOTALTRACKS=%numtracks%" -T "GENRE=%genre%" -T "ALBUMARTIST=%albumartist%" -T "ALBUM ARTIST=%albumartist%" -T "COMMENT=EAC Secure Mode, Test & Copy, AccurateRip, FLAC -8" %source%
TOC of the extracted CD
Track | Start | Length | Start sector | End sector
---------------------------------------------------------
1 | 0:00.00 | 4:55.24 | 0 | 22148
2 | 4:55.24 | 3:07.49 | 22149 | 36222
3 | 8:02.73 | 5:26.71 | 36223 | 60743
4 | 13:29.69 | 5:36.34 | 60744 | 85977
5 | 19:06.28 | 6:37.73 | 85978 | 115825
6 | 25:44.26 | 5:45.45 | 115826 | 141745
7 | 31:29.71 | 6:16.28 | 141746 | 169973
8 | 37:46.24 | 4:49.44 | 169974 | 191692
9 | 42:35.68 | 3:25.39 | 191693 | 207106
10 | 46:01.32 | 3:24.40 | 207107 | 222446
Track 1
Filename C:\EAC rips\01 - Recurring Dreams.wav
Pre-gap length 0:00:02.00
Peak level 98.0 %
Extraction speed 2.2 X
Track quality 100.0 %
Test CRC 0737C993
Copy CRC 0737C993
Track not present in AccurateRip database
Copy OK
Track 2
Filename C:\EAC rips\02 - SAJ'S.wav
Peak level 76.9 %
Extraction speed 2.3 X
Track quality 100.0 %
Test CRC 7B3B55C2
Copy CRC 7B3B55C2
Track not present in AccurateRip database
Copy OK
Track 3
Filename C:\EAC rips\03 - Jazz Envy.wav
Peak level 97.9 %
Extraction speed 2.6 X
Track quality 100.0 %
Test CRC 44938891
Copy CRC 44938891
Track not present in AccurateRip database
Copy OK
Track 4
Filename C:\EAC rips\04 - Water.wav
Peak level 97.9 %
Extraction speed 2.8 X
Track quality 100.0 %
Test CRC 5FE474A6
Copy CRC 5FE474A6
Track not present in AccurateRip database
Copy OK
Track 5
Filename C:\EAC rips\05 - Limp Mint.wav
Peak level 97.9 %
Extraction speed 3.2 X
Track quality 100.0 %
Test CRC FFE86ED0
Copy CRC FFE86ED0
Track not present in AccurateRip database
Copy OK
Track 6
Filename C:\EAC rips\06 - Driving Licence.wav
Peak level 97.9 %
Extraction speed 3.0 X
Track quality 99.9 %
Test CRC 2E3CA091
Copy CRC 2E3CA091
Track not present in AccurateRip database
Copy OK
Track 7
Filename C:\EAC rips\07 - No D.wav
Peak level 98.0 %
Extraction speed 3.7 X
Track quality 100.0 %
Test CRC 72F472A6
Copy CRC 72F472A6
Track not present in AccurateRip database
Copy OK
Track 8
Filename C:\EAC rips\08 - Miss Univers 2031.wav
Peak level 97.9 %
Extraction speed 3.8 X
Track quality 100.0 %
Test CRC 058ED52E
Copy CRC 058ED52E
Track not present in AccurateRip database
Copy OK
Track 9
Filename C:\EAC rips\09 - It Began to Get Dark.wav
Peak level 97.9 %
Extraction speed 2.9 X
Track quality 99.9 %
Test CRC B41B4D20
Copy CRC B41B4D20
Track not present in AccurateRip database
Copy OK
Track 10
Filename C:\EAC rips\10 - Tricéphale.wav
Peak level 97.9 %
Extraction speed 3.1 X
Track quality 99.9 %
Test CRC 2FBDDF34
Copy CRC 2FBDDF34
Track not present in AccurateRip database
Copy OK
None of the tracks are present in the AccurateRip database
No errors occurred
End of status report
---- CUETools DB Plugin V2.1.4
[CTDB TOCID: FpCDMpFTLrhsjqwJOTbQsqlya8I-] found
Submit result: already submitted
Track | CTDB Status
1 | (1/1) Accurately ripped
2 | (1/1) Accurately ripped
3 | (1/1) Accurately ripped
4 | (1/1) Accurately ripped
5 | (1/1) Accurately ripped
6 | (1/1) Accurately ripped
7 | (1/1) Accurately ripped
8 | (1/1) Accurately ripped
9 | (1/1) Accurately ripped
10 | (1/1) Accurately ripped
==== Log checksum 98FAA87F404331C609DD476493FD147C641402D33C395C67D6598014F5A2C997 ====
 
Содержание индексной карты (.CUE)
REM GENRE Jazz
REM DATE 2013
REM DISCID 960B950A
REM COMMENT "ExactAudioCopy v1.0b3"
PERFORMER "John Hollenbeck - Alban Darche - Samuel Blaser - Sébastien Boisseau"
TITLE "JASS"
FILE "01 - Recurring Dreams.wav" WAVE
TRACK 01 AUDIO
TITLE "Recurring Dreams"
PERFORMER "John Hollenbeck - Alban Darche - Samuel Blaser - Sébastien Boisseau"
ISRC FR9W11312826
INDEX 01 00:00:00
FILE "02 - SAJ'S.wav" WAVE
TRACK 02 AUDIO
TITLE "SAJ'S"
PERFORMER "John Hollenbeck - Alban Darche - Samuel Blaser - Sébastien Boisseau"
ISRC FR9W11312827
INDEX 01 00:00:00
FILE "03 - Jazz Envy.wav" WAVE
TRACK 03 AUDIO
TITLE "Jazz Envy"
PERFORMER "John Hollenbeck - Alban Darche - Samuel Blaser - Sébastien Boisseau"
ISRC FR9W11312828
INDEX 01 00:00:00
FILE "04 - Water.wav" WAVE
TRACK 04 AUDIO
TITLE "Water"
PERFORMER "John Hollenbeck - Alban Darche - Samuel Blaser - Sébastien Boisseau"
ISRC FR9W11312829
INDEX 01 00:00:00
FILE "05 - Limp Mint.wav" WAVE
TRACK 05 AUDIO
TITLE "Limp Mint"
PERFORMER "John Hollenbeck - Alban Darche - Samuel Blaser - Sébastien Boisseau"
ISRC FR9W11312830
INDEX 01 00:00:00
FILE "06 - Driving Licence.wav" WAVE
TRACK 06 AUDIO
TITLE "Driving Licence"
PERFORMER "John Hollenbeck - Alban Darche - Samuel Blaser - Sébastien Boisseau"
ISRC FR9W11312831
INDEX 01 00:00:00
FILE "07 - No D.wav" WAVE
TRACK 07 AUDIO
TITLE "No D"
PERFORMER "John Hollenbeck - Alban Darche - Samuel Blaser - Sébastien Boisseau"
ISRC FR9W11312832
INDEX 01 00:00:00
FILE "08 - Miss Univers 2031.wav" WAVE
TRACK 08 AUDIO
TITLE "Miss Univers 2031"
PERFORMER "John Hollenbeck - Alban Darche - Samuel Blaser - Sébastien Boisseau"
ISRC FR9W11312833
INDEX 01 00:00:00
FILE "09 - It Began to Get Dark.wav" WAVE
TRACK 09 AUDIO
TITLE "It Began to Get Dark"
PERFORMER "John Hollenbeck - Alban Darche - Samuel Blaser - Sébastien Boisseau"
ISRC FR9W11312834
INDEX 01 00:00:00
FILE "10 - Tricéphale.wav" WAVE
TRACK 10 AUDIO
TITLE "Tricéphale"
PERFORMER "John Hollenbeck - Alban Darche - Samuel Blaser - Sébastien Boisseau"
ISRC FR9W11312835
INDEX 01 00:00:00
По всем вопросам пишите личное сообщение пользователю M0p94ok.
00:22
164
Нет комментариев. Ваш будет первым!