Вы используете незарегистрированную версию компонента "Вкладки"!

Поиск

(Avant-Garde Jazz, Fusion, Free Improvisation) [CD] Pulsarus - Bee Itch - 2014, FLAC (tracks+.cue), lossless

(Avant-Garde Jazz, Fusion, Free Improvisation) [CD] Pulsarus - Bee Itch - 2014, FLAC (tracks+.cue), lossless
Треклист:
pulsarus
bee itch
Жанр: Avant-Garde Jazz, Fusion, Free Improvisation
Страна-производитель диска: Poland
Год издания: 2014
Издатель (лейбл): For Tune Records
Номер по каталогу: FT0023
Аудиокодек: FLAC (*.flac)
Тип рипа: tracks+.cue
Битрейт аудио: lossless
Продолжительность: 57:13
Источник (релизер): спасибо daodrozd
Наличие сканов в содержимом раздачи: нет
Треклист:
1. Imagine (J. Lennon)
2. Guff
3. Isogriv 1
4. Bathetic
5. Isogriv 2
6. Ataraxia
7. Baobab
8. Rotfl
9. Isogriv 3
10. Hieratic
11. Isogriv 4
 
Лог создания рипа
Exact Audio Copy V1.0 beta 3 from 29. August 2011
EAC extraction logfile from 8. March 2014, 10:50
Pulsarus / Bee Itch
Used drive : hp CDDVDW TS-L633N Adapter: 0 ID: 1
Read mode : Secure
Utilize accurate stream : Yes
Defeat audio cache : Yes
Make use of C2 pointers : No
Read offset correction : 6
Overread into Lead-In and Lead-Out : No
Fill up missing offset samples with silence : Yes
Delete leading and trailing silent blocks : No
Null samples used in CRC calculations : Yes
Used interface : Native Win32 interface for Win NT & 2000
Gap handling : Appended to previous track
Used output format : User Defined Encoder
Selected bitrate : 1024 kBit/s
Quality : High
Add ID3 tag : No
Command line compressor : C:\Program Files (x86)\FLAC Frontend\tools\flac.exe
Additional command line options : -8 -V -T "ARTIST=%artist%" -T "TITLE=%title%" -T "ALBUM=%albumtitle%" -T "DATE=%year%" -T "TRACKNUMBER=%tracknr%" -T "GENRE=%genre%" -T "PERFORMER=%albuminterpret%" -T "COMPOSER=%composer%" %haslyrics%--tag-from-file=LYRICS="%lyricsfile%"%haslyrics% -T "ALBUMARTIST=%albumartist%" -T "DISCNUMBER=%cdnumber%" -T "TOTALDISCS=%totalcds%" -T "TOTALTRACKS=%numtracks%" -T "COMMENT=%comment%" %source% -o %dest%
TOC of the extracted CD
Track | Start | Length | Start sector | End sector
---------------------------------------------------------
1 | 0:00.00 | 6:04.00 | 0 | 27299
2 | 6:04.00 | 6:13.00 | 27300 | 55274
3 | 12:17.00 | 3:04.00 | 55275 | 69074
4 | 15:21.00 | 7:15.00 | 69075 | 101699
5 | 22:36.00 | 3:07.00 | 101700 | 115724
6 | 25:43.00 | 9:23.00 | 115725 | 157949
7 | 35:06.00 | 6:57.00 | 157950 | 189224
8 | 42:03.00 | 4:35.00 | 189225 | 209849
9 | 46:38.00 | 3:05.00 | 209850 | 223724
10 | 49:43.00 | 4:25.00 | 223725 | 243599
11 | 54:08.00 | 3:05.00 | 243600 | 257474
Track 1
Filename C:\Users\ziola4kin\Music\pulsarus - bee itch\01 imagine.wav
Pre-gap length 0:00:02.00
Peak level 96.7 %
Extraction speed 2.3 X
Track quality 100.0 %
Test CRC B5FA4EB2
Copy CRC B5FA4EB2
Track not present in AccurateRip database
Copy OK
Track 2
Filename C:\Users\ziola4kin\Music\pulsarus - bee itch\02 guff.wav
Peak level 97.7 %
Extraction speed 2.6 X
Track quality 100.0 %
Test CRC 81025389
Copy CRC 81025389
Track not present in AccurateRip database
Copy OK
Track 3
Filename C:\Users\ziola4kin\Music\pulsarus - bee itch\03 isogriv 1.wav
Peak level 94.4 %
Extraction speed 2.6 X
Track quality 100.0 %
Test CRC 3BBA702A
Copy CRC 3BBA702A
Track not present in AccurateRip database
Copy OK
Track 4
Filename C:\Users\ziola4kin\Music\pulsarus - bee itch\04 bathetic.wav
Peak level 97.7 %
Extraction speed 3.2 X
Track quality 100.0 %
Test CRC CD5D9454
Copy CRC CD5D9454
Track not present in AccurateRip database
Copy OK
Track 5
Filename C:\Users\ziola4kin\Music\pulsarus - bee itch\05 isogriv 2.wav
Peak level 96.9 %
Extraction speed 3.1 X
Track quality 100.0 %
Test CRC 24238F36
Copy CRC 24238F36
Track not present in AccurateRip database
Copy OK
Track 6
Filename C:\Users\ziola4kin\Music\pulsarus - bee itch\06 ataraxia.wav
Peak level 97.7 %
Extraction speed 3.7 X
Track quality 100.0 %
Test CRC 3A019565
Copy CRC 3A019565
Track not present in AccurateRip database
Copy OK
Track 7
Filename C:\Users\ziola4kin\Music\pulsarus - bee itch\07 baobab.wav
Peak level 97.7 %
Extraction speed 3.4 X
Track quality 99.9 %
Test CRC 00316CEC
Copy CRC 00316CEC
Track not present in AccurateRip database
Copy OK
Track 8
Filename C:\Users\ziola4kin\Music\pulsarus - bee itch\08 rotfl.wav
Peak level 97.7 %
Extraction speed 3.9 X
Track quality 100.0 %
Test CRC 50CFB9F7
Copy CRC 50CFB9F7
Track not present in AccurateRip database
Copy OK
Track 9
Filename C:\Users\ziola4kin\Music\pulsarus - bee itch\09 isogriv 3.wav
Peak level 95.5 %
Extraction speed 3.8 X
Track quality 100.0 %
Test CRC D4F42BD9
Copy CRC D4F42BD9
Track not present in AccurateRip database
Copy OK
Track 10
Filename C:\Users\ziola4kin\Music\pulsarus - bee itch\10 hieratic.wav
Peak level 95.5 %
Extraction speed 4.1 X
Track quality 100.0 %
Test CRC 61FC301D
Copy CRC 61FC301D
Track not present in AccurateRip database
Copy OK
Track 11
Filename C:\Users\ziola4kin\Music\pulsarus - bee itch\11 isogriv 4.wav
Peak level 95.4 %
Extraction speed 4.0 X
Track quality 100.0 %
Test CRC A860E42D
Copy CRC A860E42D
Track not present in AccurateRip database
Copy OK
None of the tracks are present in the AccurateRip database
No errors occurred
End of status report
---- CUETools DB Plugin V2.1.3
[CTDB TOCID: ZO0ZSn4o1e_KFsSfRY7QFKVc1_k-] found, Submit result: already submitted
[c8e4396d] (1/1) Accurately ripped
==== Log checksum 9C730AE8135D308365C0BB8298884AAF551AD2725F644EAB4E5393CC8175539A ====
 
Содержание индексной карты (.CUE)
REM DATE 2014
REM DISCID 970D690B
REM COMMENT "ExactAudioCopy v1.0b3"
PERFORMER "Pulsarus"
TITLE "Bee Itch"
FILE "01 imagine.wav" WAVE
TRACK 01 AUDIO
TITLE "imagine"
PERFORMER "Pulsarus"
ISRC PLH161400155
INDEX 01 00:00:00
FILE "02 guff.wav" WAVE
TRACK 02 AUDIO
TITLE "guff"
PERFORMER "Pulsarus"
ISRC PLH161400156
INDEX 01 00:00:00
FILE "03 isogriv 1.wav" WAVE
TRACK 03 AUDIO
TITLE "isogriv 1"
PERFORMER "Pulsarus"
ISRC PLH161400157
INDEX 01 00:00:00
FILE "04 bathetic.wav" WAVE
TRACK 04 AUDIO
TITLE "bathetic"
PERFORMER "Pulsarus"
ISRC PLH161400158
INDEX 01 00:00:00
FILE "05 isogriv 2.wav" WAVE
TRACK 05 AUDIO
TITLE "isogriv 2"
PERFORMER "Pulsarus"
ISRC PLH161400159
INDEX 01 00:00:00
FILE "06 ataraxia.wav" WAVE
TRACK 06 AUDIO
TITLE "ataraxia"
PERFORMER "Pulsarus"
ISRC PLH161400160
INDEX 01 00:00:00
FILE "07 baobab.wav" WAVE
TRACK 07 AUDIO
TITLE "baobab"
PERFORMER "Pulsarus"
ISRC PLH161400160
INDEX 01 00:00:00
FILE "08 rotfl.wav" WAVE
TRACK 08 AUDIO
TITLE "rotfl"
PERFORMER "Pulsarus"
ISRC PLH161400162
INDEX 01 00:00:00
FILE "09 isogriv 3.wav" WAVE
TRACK 09 AUDIO
TITLE "isogriv 3"
PERFORMER "Pulsarus"
ISRC PLH161400163
INDEX 01 00:00:00
FILE "10 hieratic.wav" WAVE
TRACK 10 AUDIO
TITLE "hieratic"
PERFORMER "Pulsarus"
ISRC PLH161400164
INDEX 01 00:00:00
FILE "11 isogriv 4.wav" WAVE
TRACK 11 AUDIO
TITLE "isogriv 4"
PERFORMER "Pulsarus"
ISRC PLH161400165
INDEX 01 00:00:00
 
Об альбоме
Pulsarus – has been around since 2003, always looking for whatever may define the “modern jazz” or the “jazz today”¬ — as labels wear out fast and even “jazz” itself can be a controversial term.
"Pulsarus’s effort goes into taking a next step forward as regards composition, improvisation, and sound. There is no point in reproducing the past. I am attracted to unchartered territories, to things that are not obvious, perhaps even difficult upon a first listening. I want to be intrigued and engaged.
Improvisation strategies used in “Bee Itch” are far from the typical variational quality of jazz. The phrasing and breathing is done by all musicians in unison; this plus an ambiguous musical language result in an intriguing mix. Pulsarus is a wave of explosion and tenderness, post-rock weight, rage, yelling. A mass assault. There’s a high amplitude of tension, the essential electronics. An almost unbearable obsession can side with a paralyzing melancholy. There are repetitions or a neurotic absence of them. There are melodies, too. I recommend giving it a loud listen!"
(Dominik Strycharski)
 
Состав
Dominik Strycharski – soprano, alto & tenor flutes
Tomasz Dąbrowski – trumpet, balkan horn
Aleksander Papierz – alto saxophone
Ray Dickaty – tenor saxophone
Stefan Orins – electric piano
Jacek Mazurkiewicz – double bass
Jakub Rutkowski – drums
По всем вопросам пишите личное сообщение пользователю M0p94ok.
00:21
140
Нет комментариев. Ваш будет первым!