Вы используете незарегистрированную версию компонента "Вкладки"!

Поиск

(Free Jazz) [CD] Charles Gayle Quartet - Blue Shadows - 2008, FLAC (tracks+.cue), lossless

(Free Jazz) [CD] Charles Gayle Quartet - Blue Shadows - 2008, FLAC (tracks+.cue), lossless
Треклист:
Charles Gayle Quartet - Blue Shadows
Жанр: Free Jazz
Носитель: CD
Страна-производитель диска: Sweden
Год издания: 2008
Издатель (лейбл): Silkheart
Номер по каталогу: SHCD 157
Страна: US
Аудиокодек: FLAC (*.flac)
Тип рипа: tracks+.cue
Битрейт аудио: lossless
Продолжительность: 1:10:21
Источник (релизер): вот.сиди (ralphmcd)
Наличие сканов в содержимом раздачи: да
Треклист:
1. Inside the Sun 3:00
2. Blue Shadows 11:30
3. Eternity Promised 1 17:13
4. Eternity Promised 2 2:08
5. Hearts to Jesus 17:49
6. Soul's Time 3:09
7. In Sorrow 13:38
8. Snap
This session was produced and recorded digitally at the House of Music, Studio A, West Orange, N.J., on January 21 and 22, 1993.
 
EAC log
Exact Audio Copy V0.99 prebeta 4 from 23. January 2008
EAC extraction logfile from -
c.gayle,w.parker,v.cherry,m.wimberly / charles_gayle_quartet-blue_shadows
Used drive : TSSTcorpCDDVDW SH-S223F Adapter: 0 ID: 0
Read mode : Secure
Utilize accurate stream : Yes
Defeat audio cache : Yes
Make use of C2 pointers : No
Read offset correction : 6
Overread into Lead-In and Lead-Out : No
Fill up missing offset samples with silence : Yes
Delete leading and trailing silent blocks : No
Null samples used in CRC calculations : No
Used interface : Installed external ASPI interface
Gap handling : Appended to previous track
Used output format : Internal WAV Routines
Sample format : 44.100 Hz; 16 Bit; Stereo
TOC of the extracted CD
Track | Start | Length | Start sector | End sector
---------------------------------------------------------
1 | 0:00.00 | 3:00.13 | 0 | 13512
2 | 3:00.13 | 11:30.13 | 13513 | 65275
3 | 14:30.26 | 17:13.17 | 65276 | 142767
4 | 31:43.43 | 2:08.07 | 142768 | 152374
5 | 33:51.50 | 17:49.50 | 152375 | 232599
6 | 51:41.25 | 3:09.52 | 232600 | 246826
7 | 54:51.02 | 13:38.28 | 246827 | 308204
8 | 68:29.30 | 1:51.65 | 308205 | 316594
Track 1
Filename C:\out\charles_gayle_quartet-blue_shadows\charles_gayle-blue_shadows-01-inside_the_sun.wav
Pre-gap length 0:00:02.00
Peak level 97.7 %
Track quality 100.0 %
Copy CRC C9F32076
Cannot be verified as accurate (confidence 1) [953467FE], AccurateRip returned [C0E6F3F0]
Copy OK
Track 2
Filename C:\out\charles_gayle_quartet-blue_shadows\charles_gayle-blue_shadows-02-blue_shadows.wav
Pre-gap length 0:00:01.05
Peak level 97.7 %
Track quality 100.0 %
Copy CRC 7FD9EFED
Cannot be verified as accurate (confidence 1) [F184977F], AccurateRip returned [561E7113]
Copy OK
Track 3
Filename C:\out\charles_gayle_quartet-blue_shadows\charles_gayle-blue_shadows-03-eternity_promised-1.wav
Pre-gap length 0:00:01.59
Peak level 97.7 %
Track quality 100.0 %
Copy CRC E08C5610
Cannot be verified as accurate (confidence 1) [A92F154D], AccurateRip returned [66C6996D]
Copy OK
Track 4
Filename C:\out\charles_gayle_quartet-blue_shadows\charles_gayle-blue_shadows-04-eternity_promised-2.wav
Pre-gap length 0:00:00.26
Peak level 97.7 %
Track quality 100.0 %
Copy CRC D6BF4501
Cannot be verified as accurate (confidence 1) [0C475A3C], AccurateRip returned [59752A9C]
Copy OK
Track 5
Filename C:\out\charles_gayle_quartet-blue_shadows\charles_gayle-blue_shadows-05-hearts_to_jesus.wav
Pre-gap length 0:00:00.22
Peak level 98.8 %
Track quality 100.0 %
Copy CRC B955CCF2
Cannot be verified as accurate (confidence 1) [3F612E6B], AccurateRip returned [D07CEAFF]
Copy OK
Track 6
Filename C:\out\charles_gayle_quartet-blue_shadows\charles_gayle-blue_shadows-06-soul's_time.wav
Pre-gap length 0:00:00.42
Peak level 97.7 %
Track quality 100.0 %
Copy CRC 87DC8131
Cannot be verified as accurate (confidence 1) [4BE62DB0], AccurateRip returned [C43D0844]
Copy OK
Track 7
Filename C:\out\charles_gayle_quartet-blue_shadows\charles_gayle-blue_shadows-07-in_sorrow.wav
Pre-gap length 0:00:02.62
Peak level 97.7 %
Track quality 100.0 %
Copy CRC 9CB3FABC
Cannot be verified as accurate (confidence 1) [2869A3C8], AccurateRip returned [921415C0]
Copy OK
Track 8
Filename C:\out\charles_gayle_quartet-blue_shadows\charles_gayle-blue_shadows-08-snap.wav
Pre-gap length 0:00:00.51
Peak level 97.7 %
Track quality 100.0 %
Copy CRC 0B8B598E
Cannot be verified as accurate (confidence 1) [D63C144F], AccurateRip returned [54B4EB9F]
Copy OK
No tracks could be verified as accurate
You may have a different pressing from the one(s) in the database
No errors occurred
End of status report
 
Содержание индексной карты (.CUE)
REM DATE 1993
REM DISCID 54107D08
REM COMMENT "ExactAudioCopy v0.99pb4"
PERFORMER "c.gayle,w.parker,v.cherry,m.wimberly"
TITLE "charles_gayle_quartet-blue_shadows"
FILE "charles_gayle-blue_shadows-01-inside_the_sun.wav" WAVE
TRACK 01 AUDIO
TITLE "inside_the_sun"
PERFORMER "c.gayle,w.parker,v.cherry,m.wimberly"
INDEX 01 00:00:00
TRACK 02 AUDIO
TITLE "blue_shadows"
PERFORMER "c.gayle,w.parker,v.cherry,m.wimberly"
FLAGS DCP
INDEX 00 02:59:08
FILE "charles_gayle-blue_shadows-02-blue_shadows.wav" WAVE
INDEX 01 00:00:00
TRACK 03 AUDIO
TITLE "eternity_promised-1"
PERFORMER "c.gayle,w.parker,v.cherry,m.wimberly"
FLAGS DCP
INDEX 00 11:28:29
FILE "charles_gayle-blue_shadows-03-eternity_promised-1.wav" WAVE
INDEX 01 00:00:00
TRACK 04 AUDIO
TITLE "eternity_promised-2"
PERFORMER "c.gayle,w.parker,v.cherry,m.wimberly"
FLAGS DCP
INDEX 00 17:12:66
FILE "charles_gayle-blue_shadows-04-eternity_promised-2.wav" WAVE
INDEX 01 00:00:00
TRACK 05 AUDIO
TITLE "hearts_to_jesus"
PERFORMER "c.gayle,w.parker,v.cherry,m.wimberly"
FLAGS DCP
INDEX 00 02:07:60
FILE "charles_gayle-blue_shadows-05-hearts_to_jesus.wav" WAVE
INDEX 01 00:00:00
TRACK 06 AUDIO
TITLE "soul's_time"
PERFORMER "c.gayle,w.parker,v.cherry,m.wimberly"
FLAGS DCP
INDEX 00 17:49:08
FILE "charles_gayle-blue_shadows-06-soul's_time.wav" WAVE
INDEX 01 00:00:00
TRACK 07 AUDIO
TITLE "in_sorrow"
PERFORMER "c.gayle,w.parker,v.cherry,m.wimberly"
FLAGS DCP
INDEX 00 03:06:65
FILE "charles_gayle-blue_shadows-07-in_sorrow.wav" WAVE
INDEX 01 00:00:00
TRACK 08 AUDIO
TITLE "snap"
PERFORMER "c.gayle,w.parker,v.cherry,m.wimberly"
FLAGS DCP
INDEX 00 13:37:52
FILE "charles_gayle-blue_shadows-08-snap.wav" WAVE
INDEX 01 00:00:00
 
Состав
Charles Gayle: tenor saxophone, viola
William Parker: bass, cello, half-size violin*
Vattel Cherry: bass, kalimba, bells
Michael Wimberly: drums
*смешно, наверное, выглядит Паркер с детской скрипочкой (c) bnepal
*Восстановление раздачи bnepal'a из архива
По всем вопросам пишите личное сообщение пользователю M0p94ok.
00:20
162
Нет комментариев. Ваш будет первым!