Вы используете незарегистрированную версию компонента "Вкладки"!

Поиск

(Avant-Garde Jazz / Free Improvisation) [CD] The Godforgottens (Magnus Broo, Sten Sandell, Johan Berthling, Paal Nilssen-Love) - Never Forgotten, Always Remembered - 2009, FLAC (tracks+.cue), lossless

(Avant-Garde Jazz / Free Improvisation) [CD] The Godforgottens (Magnus Broo, Sten Sandell, Johan Berthling, Paal Nilssen-Love) - Never Forgotten, Always Remembered - 2009, FLAC (tracks+.cue), lossless
Треклист:
The Godforgottens - Never Forgotten, Always Remembered
Жанр: Avant-Garde Jazz / Free Improvisation
Носитель: CD
Страна-производитель диска: Portugal
Год издания: 2009
Издатель (лейбл): Clean Feed
Номер по каталогу: CF164CD
Аудиокодек: FLAC (*.flac)
Тип рипа: tracks+.cue
Битрейт аудио: lossless
Продолжительность: 00:44:06
Источник (релизер): nnm, Джаз Клуб, 14 марта, 2014 / спасибо mishka1981
Наличие сканов в содержимом раздачи: да
Треклист:
1. Always Forgotten (13:44)
2. Never Remembered (10:31)
3. Remembered Forgotten (19:52)
Доп. информация:
Musicians:
MAGNUS BROO - trumpet
STEN SANDELL - Hammond B3 organ, piano, vocal
JOHAN BERTHLING - bass
PAAL NILSSEN-LOVE - drums & percussion
Recorded at the Atlantis Grammofon, Stockholm, 27th and 28th of March 2006 by Janne Hansson
GODFORGOTTENS - Never Forgotten, Always Remembered cleanfeed-records.com
GODFORGOTTENS - Never Forgotten, Always Remembered allaboutjazz.com
MAGNUS BROO from Wikipedia, the free encyclopedia
STEN SANDELL Official Site
STEN SANDELL from Wikipedia, the free encyclopedia
JOHAN BERTHLING from Wikipedia, the free encyclopedia
PAAL NILSSEN-LOVE Official Site
 
... back ...
 
... photo ...
 
... review ...
The association of trumpeter Magnus Broo with the Sten Sandell Trio was very much intended and searched for, giving continuity to another partnership in quartet: the one with John Butcher heard in the album “Strokes”. But something wasn't planned: the use of a Hammond B-3 organ. The instrument was laying in a corner of the recording studio and Sandell decided on the spot to use it as his main keyboard. With one particularity: he never played a Hammond before. Of course, the music changed radically; not only we feel Broo's influence in all the developments, as the peculiar characteristics of the organ determined a kind of approach rather different from anything done previously by the Sten Sandell Trio. And that's why “Never Forgotten, Always Remembered” is credited to a new band, The Godforgottens. And what a band, reuniting great virtuosos (along with Broo and Sandell, bassist Johan Berthling and drummer Paal Nilssen-Love) who don't choose the easiest way – to exhibit their skills for the egotist pleasure of it. They also have in common the gathering in their musical languages of several stylistic influences, going from classical contemporary music to experimental rock, the axis being hard bop and free jazz. The resulting music is quite a surprise! When you think you've heard everything, here is a CD coming directly from creativity land.
~ cleanfeed-records.com
* * *
A Scandinavian supergroup of sorts, The Godforgottens met for this recording session in 2006 and pianist Sten Sandell happened to spot a Hammond B3 organ in the corner. Having never played one before, he instantly shaped the direction and feel of this performance out of this spontaneous decision to have a go at it. The three musicians joining Sandell - trumpeter Magnus Broo, bassist Johan Berthling and drummer Paal Nilssen-Love - have all collaborated on various projects in the past. This combination might be the first, hopefully, of many for The Godforgottens.
The three lengthy tracks - between ten and twenty minutes - crystallize from the B3, but not as the work of an American jazz/blues organ band. The sound might best be described as the imaginary meeting of Sun Ra and Miles Davis, circa 1974. The opening "Always Forgotten," begins with a placid organ wash, providing an equable current of energy under the unwrinkled tone of Broo's trumpet. With the entrance of Berthling's bowed bass and Nilssen-Love's percussion wash, The Godforgottens create a soundscape in which some very intimate improvisations can be built.
The band adds tension and release within each piece as the river of sound continues on with a seemingly endless number of possibilities. Even when Sandell switches to piano mid-song, the energy sustains itself by way of Nilssen-Love and Berthling's inexhaustible pace. By "Never Remembered," the quartet allows the threads to unravel, opening the music up and jostling the time signature. Sandell accomplishes this by sitting out much of the time; only entering to push players in varying directions. The duo of Berthling and Nilssen-Love heard here expands the imagination, as they seem to create new sounds from their respective instruments.
The nearly twenty-minute "Remembered Forgotten" ends the disc with a trumpet/drum launch. The pair sparks a pulse picked up by piano and bass before the sound spins into free-form musings. When the organ reenters (think of dark clouds overhead), the vibe turns heavy and Broo breaks out his upper register playing to push up the sky. By the end, the exhausted players return to the opening wash of the B3 sound to bring the music full circle.
~ Mark Corroto ~ allaboutjazz.com
 
Лог создания рипа
Exact Audio Copy V1.0 beta 1 from 15. November 2010
EAC extraction logfile from 13. March 2014, 21:45
The Godforgottens / Never Forgotten, Always Remembered
Used drive : Optiarc DVD RW AD-7710H Adapter: 1 ID: 0
Read mode : Secure
Utilize accurate stream : Yes
Defeat audio cache : Yes
Make use of C2 pointers : No
Read offset correction : 48
Overread into Lead-In and Lead-Out : No
Fill up missing offset samples with silence : Yes
Delete leading and trailing silent blocks : No
Null samples used in CRC calculations : Yes
Used interface : Native Win32 interface for Win NT & 2000
Gap handling : Appended to previous track
Used output format : User Defined Encoder
Selected bitrate : 896 kBit/s
Quality : High
Add ID3 tag : No
Command line compressor : C:\Program Files\Exact Audio Copy\FLAC\FLAC.EXE
Additional command line options : -8 -V -T "ARTIST=%a" -T "TITLE=%t" -T "ALBUM=%g" -T "DATE=%y" -T "TRACKNUMBER=%n" -T "GENRE=%m" -T "COMMENT=%e" %j--picture="%i"%j %s -o %d
TOC of the extracted CD
Track | Start | Length | Start sector | End sector
---------------------------------------------------------
1 | 0:00.00 | 13:43.63 | 0 | 61787
2 | 13:43.63 | 10:30.38 | 61788 | 109075
3 | 24:14.26 | 19:51.74 | 109076 | 198474
Track 1
Filename C:\MY RIPS\01 - Always Forgotten.wav
Pre-gap length 0:00:02.00
Peak level 98.8 %
Extraction speed 1.4 X
Track quality 99.9 %
Test CRC 4FDB6E12
Copy CRC 4FDB6E12
Accurately ripped (confidence 2) [F43D611C]
Copy OK
Track 2
Filename C:\MY RIPS\02 - Never Remembered.wav
Peak level 98.8 %
Extraction speed 1.8 X
Track quality 100.0 %
Test CRC F7F6D044
Copy CRC F7F6D044
Accurately ripped (confidence 2) [CA89C7C1]
Copy OK
Track 3
Filename C:\MY RIPS\03 - Remembered Forgotten.wav
Peak level 98.8 %
Extraction speed 2.2 X
Track quality 100.0 %
Test CRC BE765BD5
Copy CRC BE765BD5
Accurately ripped (confidence 2) [DB52263C]
Copy OK
All tracks accurately ripped
No errors occurred
End of status report
==== Log checksum 8F96E29025F5D27EBAAFEC55DEAB81B0B64E3965023EE4F7D1D78AA68300B68F ====
 
Содержание индексной карты (.CUE)
REM DISCID 210A5603
REM COMMENT "ExactAudioCopy v1.0b1"
PERFORMER "The Godforgottens"
TITLE "Never Forgotten, Always Remembered"
FILE "01 - Always Forgotten.wav" WAVE
TRACK 01 AUDIO
TITLE "Always Forgotten"
PERFORMER "The Godforgottens"
FLAGS DCP
INDEX 01 00:00:00
FILE "02 - Never Remembered.wav" WAVE
TRACK 02 AUDIO
TITLE "Never Remembered"
PERFORMER "The Godforgottens"
FLAGS DCP
INDEX 01 00:00:00
FILE "03 - Remembered Forgotten.wav" WAVE
TRACK 03 AUDIO
TITLE "Remembered Forgotten"
PERFORMER "The Godforgottens"
FLAGS DCP
INDEX 01 00:00:00
 
auCDtect Task Manager
-----------------------
DON'T MODIFY THIS FILE
-----------------------
PERFORMER: auCDtect Task Manager, ver. 1.5.1RC6 build 1.5.1.7
Copyright (c) 2008-2010 y-soft. All rights reserved
http://y-soft.org
ANALYZER: auCDtect: CD records authenticity detector, version 0.8.2
Copyright (c) 2004 Oleg Berngardt. All rights reserved.
Copyright (c) 2004 Alexander Djourik. All rights reserved.
FILE: 03 - Remembered Forgotten.flac
Size: 119691468 Hash: A9B47A291AACC8DC185464D3D1E8C537 Accuracy: -m0
Conclusion: CDDA 99%
Signature: E184DE04229121B04863C403859BDD7272D4EC70
FILE: 02 - Never Remembered.flac
Size: 62397403 Hash: 2DED3586CAA7A58196BBC3749BC51728 Accuracy: -m0
Conclusion: CDDA 100%
Signature: 87A373BB16F9A774F1BBD19749A3EC64B07A01BA
FILE: 01 - Always Forgotten.flac
Size: 84250970 Hash: AFC4473A8CFB24223349B7C6FD1E9F7A Accuracy: -m0
Conclusion: CDDA 100%
Signature: C3D972F98147BC89279875866892830EC8FBCBE5
Any questions -> support@pro-jazz.com. По всем вопросам пишите -> support@pro-jazz.com
00:20
155
Нет комментариев. Ваш будет первым!