Вы используете незарегистрированную версию компонента "Вкладки"!

Поиск

(Free Jazz, Free Improvisation) [CD] Francois Carrier, Dewey Redman, Michel Donato, Ron Seguin, Michel Lambert - Open Spaces - 2006, FLAC (tracks+.cue), lossless

Треклист:
Francois Carrier, Dewey Redman, Michel Donato, Ron Seguin, Michel Lambert / Open Spaces
Жанр: Free Jazz, Free Improvisation
Носитель: CD
Страна-производитель диска: Canada
Год издания: 2006
Издатель (лейбл): Spool
Номер по каталогу: SPL127 / LINE 27
Страна: Canada, US
Аудиокодек: FLAC (*.flac)
Тип рипа: tracks+.cue
Битрейт аудио: lossless
Продолжительность: 53:24
Источник (релизер): свой фирменный диск
Наличие сканов в содержимом раздачи:
Треклист:
1. Going Through 20:57
2. Open Spaces 12:54
3. With The Flow 19:27
 
Лог создания рипа
Exact Audio Copy V1.0 beta 3 from 29. August 2011
EAC extraction logfile from 25. March 2014, 20:24
Francois Carrier, Dewey Redman, Michel Donato, Ron Seguin, Michel Lambert / Open Spaces
Used drive : PIONEER DVD-RW DVR-115D Adapter: 0 ID: 0
Read mode : Secure
Utilize accurate stream : Yes
Defeat audio cache : Yes
Make use of C2 pointers : No
Read offset correction : 48
Overread into Lead-In and Lead-Out : No
Fill up missing offset samples with silence : Yes
Delete leading and trailing silent blocks : No
Null samples used in CRC calculations : Yes
Used interface : Installed external ASPI interface
Gap handling : Appended to previous track
Used output format : User Defined Encoder
Selected bitrate : 896 kBit/s
Quality : High
Add ID3 tag : No
Command line compressor : C:\Program Files\Exact Audio Copy\FLAC\FLAC.EXE
Additional command line options : -6 -V -T "ARTIST=%artist%" -T "TITLE=%title%" -T "ALBUM=%albumtitle%" -T "DATE=%year%" -T "TRACKNUMBER=%tracknr%" -T "GENRE=%genre%" -T "COMMENT=%comment%" -T "BAND=%albuminterpret%" -T "COMPOSER=%composer%" %haslyrics%--tag-from-file=LYRICS="%lyricsfile%"%haslyrics% -T "DISCNUMBER=%cdnumber%" -T "TOTALDISCS=%totalcds%" -T "TOTALTRACKS=%numtracks%" %hascover%--picture="%coverfile%"%hascover% %source% -o %dest%
TOC of the extracted CD
Track | Start | Length | Start sector | End sector
---------------------------------------------------------
1 | 0:00.00 | 21:00.14 | 0 | 94513
2 | 21:00.14 | 12:57.37 | 94514 | 152825
3 | 33:57.51 | 19:27.23 | 152826 | 240373
Track 1
Filename D:\zzz\01 - Going Through.wav
Pre-gap length 0:00:02.00
Peak level 94.4 %
Extraction speed 5.7 X
Track quality 100.0 %
Test CRC F3EAA188
Copy CRC F3EAA188
Track not present in AccurateRip database
Copy OK
Track 2
Filename D:\zzz\02 - Open Spaces.wav
Pre-gap length 0:00:03.00
Peak level 94.4 %
Extraction speed 6.9 X
Track quality 99.9 %
Test CRC BB9D5991
Copy CRC BB9D5991
Track not present in AccurateRip database
Copy OK
Track 3
Filename D:\zzz\03 - With The Flow.wav
Pre-gap length 0:00:03.00
Peak level 94.4 %
Extraction speed 8.1 X
Track quality 99.9 %
Test CRC 3B581055
Copy CRC 3B581055
Track not present in AccurateRip database
Copy OK
None of the tracks are present in the AccurateRip database
No errors occurred
End of status report
==== Log checksum 27F6EF806B9E31E3660DAC4E2C8A4D2B8BFD84640CC70ADFC57350A4175E5918 ====
 
Содержание индексной карты (.CUE)
REM GENRE "Free Jazz"
REM DATE 2006
REM DISCID 1B0C8403
REM COMMENT "ExactAudioCopy v1.0b3"
PERFORMER "Francois Carrier, Dewey Redman, Michel Donato, Ron Seguin, Michel Lambert"
TITLE "Open Spaces"
FILE "01 - Going Through.wav" WAVE
TRACK 01 AUDIO
TITLE "Going Through"
PERFORMER "Francois Carrier, Dewey Redman, Michel Donato, Ron Seguin, Michel Lambert"
INDEX 01 00:00:00
TRACK 02 AUDIO
TITLE "Open Spaces"
PERFORMER "Francois Carrier, Dewey Redman, Michel Donato, Ron Seguin, Michel Lambert"
INDEX 00 20:57:14
FILE "02 - Open Spaces.wav" WAVE
INDEX 01 00:00:00
TRACK 03 AUDIO
TITLE "With The Flow"
PERFORMER "Francois Carrier, Dewey Redman, Michel Donato, Ron Seguin, Michel Lambert"
INDEX 00 12:54:37
FILE "03 - With The Flow.wav" WAVE
INDEX 01 00:00:00
 
Лог проверки качества
d:\>d:\aucdtect -d/-m0 d:\zzz\*.wav
auCDtect: CD records authenticity detector, version 0.8.2
Copyright (c) 2004 Oleg Berngardt. All rights reserved.
Copyright (c) 2004 Alexander Djourik. All rights reserved.
------------------------------------------------------------
Processing file: [01. Going Through.wav]
------------------------------------------------------------
This track looks like CDDA with probability 100%
------------------------------------------------------------
Processing file: [02. Open Spaces.wav]
------------------------------------------------------------
This track looks like CDDA with probability 100%
------------------------------------------------------------
Processing file: [03. With The Flow.wav]
------------------------------------------------------------
This track looks like CDDA with probability 100%
------------------------------------------------------------
Final Conclusion:
------------------------------------------------------------
These tracks looks like CDDA with probability 100%
Доп. информация:
 
Album Info & AAJ Review
Recorded live in Quebec City, Quebec, October 30 and November 1st 1999
Sound and mastering by Francois Carrier
Photos by Francois Carrier
Produced by Francois Carrier
Assisted by Edith Fortier
Music entirely improvised by Francois Carrier, Dewey Redman, Michel Donato, Ron Seguin and Michel Lambert
Mon amour inconditionnel a la Vie!
F.C.
With Open Spaces, Francois Carrier has given us an opportunity to hear him paired with the magnificent Dewey Redman, recorded over two nights live in Quebec City in 1999. Carrier's usual drummer, Michel Lambert, provides powerhouse support on both nights, while bassist Michel Donato plays on track one and Ron Seguin on tracks two and three. This release, which was also mastered and produced by Carrier, is essentially a homage to Redman.
Redman, who died last September at the age of 75, did not gain as much recognition as perhaps he should have, but he was acknowledged as one of the most versatile tenor players around. His most notable associations were with Ornette Coleman from 1967-74 and with Keith Jarrett's "American" quartet in the early '70s.
The music on Open Spaces is by turns extraordinarily beautiful and physically exciting, and it seems to these ears that Carrier, although himself a master of free improvisation, follows Redman's lead. Indeed, there are times when it is hard to tell who is playing when Redman is at the upper end of his tenor and Carrier the lower end of his alto.
The free playing here is audibly tonally and thematically centered. "Going Through" opens with one of the most beautiful rubato lines you will ever hear by Redman (I think). All is mystery, softness and warmth, with a bit of danger added in. "Open Spaces" starts with a jaunty, humorous theme, again by Redman (I think), while "With The Flow," which sounds like Carrier's answer to Redman's first theme, brings back the first track's wide, deep silences.
Not only are the front-line players totally in sync, but the bass and drum playing is always very sensitive and supportive. Lambert has been with Carrier a long time and has a sixth sense when to lay back and when to push the group forward, either by erupting or locking in with the bassist in sections that can raise the hair on your neck.
Open Spaces, perhaps even more than Carrier's recent Leo release, Happening, is a wonderful introduction to free playing for those for whom it is new. Yes, there are periods of seeming chaos, with some squealing and honking and manic drumming, but these moments are reached by logical means. Then again, there are many clear themes, quotes from Lester Young and others that just pop out and shock just as much as the free-form stuff.
Put simply, all of these players know how to control the flow, density and emotions of the music as it develops, and this makes it "easy" to accept and follow. "Free" playing here does not mean cacophony, but rather an on-your-toes, in-the-moment experience of playing and listening. Enjoy.
 
Состав
Francois Carrier: alto saxophone
Dewey Redman: tenor saxophone
Michel Donato: acoustic bass on 1
Ron Seguin: acoustic bass on 2 & 3
Michel Lambert: drums
По всем вопросам пишите личное сообщение пользователю M0p94ok.
01:32
172
Нет комментариев. Ваш будет первым!