Вы используете незарегистрированную версию компонента "Вкладки"!

Поиск

(Avant-Garde Jazz, Free Improvisation) [CD] Wayne Horvitz, Ron Samworth, Peggy Lee, Bill Clark, Dylan Van Der Schyff - Intersection Poems - 2004, FLAC (tracks+.cue), lossless

Треклист:
Wayne Horvitz, Ron Samworth, Peggy Lee, Bill Clark, Dylan Van Der Schyff / Intersection Poems
Жанр: Avant-Garde Jazz, Free Improvisation
Носитель: CD
Страна-производитель диска: Canada
Год издания: 2004
Издатель (лейбл): Spool
Номер по каталогу: SPL125 / LINE 25
Страна: US, Canada
Аудиокодек: FLAC (*.flac)
Тип рипа: tracks+.cue
Битрейт аудио: lossless
Продолжительность: 40:12
Источник (релизер): свой фирменный диск
Наличие сканов в содержимом раздачи:
Треклист:
1. Merge A La Gauche 8:39
2. Elk Crossing 5:19
3. Pavement Ends 3:38
4. Intersection Poems 4:50
5. Children At Play 6:44
6. Begin Two Way 3:07
7. ...When Amber Flashing 7:23
 
Лог создания рипа
Exact Audio Copy V1.0 beta 3 from 29. August 2011
EAC extraction logfile from 24. March 2014, 19:50
Wayne Horvitz, Ron Samworth, Peggy Lee, Bill Clark, Dylan Van Der Schyff / Intersection Poems
Used drive : PIONEER DVD-RW DVR-115D Adapter: 0 ID: 0
Read mode : Secure
Utilize accurate stream : Yes
Defeat audio cache : Yes
Make use of C2 pointers : No
Read offset correction : 48
Overread into Lead-In and Lead-Out : No
Fill up missing offset samples with silence : Yes
Delete leading and trailing silent blocks : No
Null samples used in CRC calculations : Yes
Used interface : Installed external ASPI interface
Gap handling : Appended to previous track
Used output format : User Defined Encoder
Selected bitrate : 896 kBit/s
Quality : High
Add ID3 tag : No
Command line compressor : C:\Program Files\Exact Audio Copy\FLAC\FLAC.EXE
Additional command line options : -6 -V -T "ARTIST=%artist%" -T "TITLE=%title%" -T "ALBUM=%albumtitle%" -T "DATE=%year%" -T "TRACKNUMBER=%tracknr%" -T "GENRE=%genre%" -T "COMMENT=%comment%" -T "BAND=%albuminterpret%" -T "COMPOSER=%composer%" %haslyrics%--tag-from-file=LYRICS="%lyricsfile%"%haslyrics% -T "DISCNUMBER=%cdnumber%" -T "TOTALDISCS=%totalcds%" -T "TOTALTRACKS=%numtracks%" %hascover%--picture="%coverfile%"%hascover% %source% -o %dest%
TOC of the extracted CD
Track | Start | Length | Start sector | End sector
---------------------------------------------------------
1 | 0:00.00 | 8:45.30 | 0 | 39404
2 | 8:45.30 | 5:23.40 | 39405 | 63669
3 | 14:08.70 | 3:42.25 | 63670 | 80344
4 | 17:51.20 | 4:56.00 | 80345 | 102544
5 | 22:47.20 | 6:50.20 | 102545 | 133314
6 | 29:37.40 | 3:11.61 | 133315 | 147700
7 | 32:49.26 | 7:23.06 | 147701 | 180931
Track 1
Filename D:\zzz\01 - Merge A La Gauche.wav
Pre-gap length 0:00:02.00
Peak level 92.7 %
Extraction speed 4.9 X
Track quality 100.0 %
Test CRC 6DADDD0D
Copy CRC 6DADDD0D
Accurately ripped (confidence 2) [92EC40F3] (AR v1)
Copy OK
Track 2
Filename D:\zzz\02 - Elk Crossing.wav
Pre-gap length 0:00:06.00
Peak level 95.7 %
Extraction speed 5.2 X
Track quality 100.0 %
Test CRC 0C83DDA6
Copy CRC 0C83DDA6
Accurately ripped (confidence 2) [2007F55D] (AR v1)
Copy OK
Track 3
Filename D:\zzz\03 - Pavement Ends.wav
Pre-gap length 0:00:04.00
Peak level 97.2 %
Extraction speed 5.5 X
Track quality 100.0 %
Test CRC E3A6B17E
Copy CRC E3A6B17E
Accurately ripped (confidence 2) [764EBD47] (AR v1)
Copy OK
Track 4
Filename D:\zzz\04 - Intersection Poems.wav
Pre-gap length 0:00:04.00
Peak level 100.0 %
Extraction speed 6.1 X
Track quality 100.0 %
Test CRC A014975C
Copy CRC A014975C
Accurately ripped (confidence 2) [01703A6C] (AR v1)
Copy OK
Track 5
Filename D:\zzz\05 - Children At Play.wav
Pre-gap length 0:00:06.00
Peak level 97.3 %
Extraction speed 6.7 X
Track quality 100.0 %
Test CRC 7F5FF6DB
Copy CRC 7F5FF6DB
Accurately ripped (confidence 2) [FA3F952C] (AR v1)
Copy OK
Track 6
Filename D:\zzz\06 - Begin Two Way.wav
Pre-gap length 0:00:06.00
Peak level 63.4 %
Extraction speed 6.5 X
Track quality 100.0 %
Test CRC FE5CE5C4
Copy CRC FE5CE5C4
Accurately ripped (confidence 2) [24540A2B] (AR v1)
Copy OK
Track 7
Filename D:\zzz\07 - When Amber Flashing.wav
Pre-gap length 0:00:04.00
Peak level 93.2 %
Extraction speed 7.4 X
Track quality 100.0 %
Test CRC DAD911D0
Copy CRC DAD911D0
Accurately ripped (confidence 2) [CD5F09B3] (AR v1)
Copy OK
All tracks accurately ripped
No errors occurred
End of status report
==== Log checksum 67846F269F2B1E62654604BC6F114F233B937AF85F0BEC139F04BCFD20118AC4 ====
 
Содержание индексной карты (.CUE)
REM GENRE "Free Improvisation"
REM DATE 2004
REM DISCID 65096C07
REM COMMENT "ExactAudioCopy v1.0b3"
PERFORMER "Wayne Horvitz, Ron Samworth, Peggy Lee, Bill Clark, Dylan Van Der Schyff"
TITLE "Intersection Poems "
FILE "01 - Merge A La Gauche.wav" WAVE
TRACK 01 AUDIO
TITLE "Merge A La Gauche"
PERFORMER "Wayne Horvitz, Ron Samworth, Peggy Lee, Bill Clark, Dylan Van Der Schyff"
INDEX 01 00:00:00
TRACK 02 AUDIO
TITLE "Elk Crossing"
PERFORMER "Wayne Horvitz, Ron Samworth, Peggy Lee, Bill Clark, Dylan Van Der Schyff"
INDEX 00 08:39:30
FILE "02 - Elk Crossing.wav" WAVE
INDEX 01 00:00:00
TRACK 03 AUDIO
TITLE "Pavement Ends"
PERFORMER "Wayne Horvitz, Ron Samworth, Peggy Lee, Bill Clark, Dylan Van Der Schyff"
INDEX 00 05:19:40
FILE "03 - Pavement Ends.wav" WAVE
INDEX 01 00:00:00
TRACK 04 AUDIO
TITLE "Intersection Poems"
PERFORMER "Wayne Horvitz, Ron Samworth, Peggy Lee, Bill Clark, Dylan Van Der Schyff"
INDEX 00 03:38:25
FILE "04 - Intersection Poems.wav" WAVE
INDEX 01 00:00:00
TRACK 05 AUDIO
TITLE "Children At Play"
PERFORMER "Wayne Horvitz, Ron Samworth, Peggy Lee, Bill Clark, Dylan Van Der Schyff"
INDEX 00 04:50:00
FILE "05 - Children At Play.wav" WAVE
INDEX 01 00:00:00
TRACK 06 AUDIO
TITLE "Begin Two Way"
PERFORMER "Wayne Horvitz, Ron Samworth, Peggy Lee, Bill Clark, Dylan Van Der Schyff"
INDEX 00 06:44:20
FILE "06 - Begin Two Way.wav" WAVE
INDEX 01 00:00:00
TRACK 07 AUDIO
TITLE "When Amber Flashing"
PERFORMER "Wayne Horvitz, Ron Samworth, Peggy Lee, Bill Clark, Dylan Van Der Schyff"
INDEX 00 03:07:61
FILE "07 - When Amber Flashing.wav" WAVE
INDEX 01 00:00:00
 
Лог проверки качества
d:\>d:\aucdtect -d/-m0 d:\zzz\*.wav
auCDtect: CD records authenticity detector, version 0.8.2
Copyright (c) 2004 Oleg Berngardt. All rights reserved.
Copyright (c) 2004 Alexander Djourik. All rights reserved.
------------------------------------------------------------
Processing file: [01. Merge A La Gauche.wav]
------------------------------------------------------------
This track looks like CDDA with probability 100%
------------------------------------------------------------
Processing file: [02. Elk Crossing.wav]
------------------------------------------------------------
This track looks like CDDA with probability 100%
------------------------------------------------------------
Processing file: [03. Pavement Ends.wav]
------------------------------------------------------------
This track looks like CDDA with probability 100%
------------------------------------------------------------
Processing file: [04. Intersection Poems.wav]
------------------------------------------------------------
This track looks like CDDA with probability 100%
------------------------------------------------------------
Processing file: [05. Children At Play.wav]
------------------------------------------------------------
This track looks like CDDA with probability 100%
------------------------------------------------------------
Processing file: [06. Begin Two Way.wav]
------------------------------------------------------------
This track looks like CDDA with probability 86%
------------------------------------------------------------
Processing file: [07. When Amber Flashing.wav]
------------------------------------------------------------
This track looks like CDDA with probability 100%
------------------------------------------------------------
Final Conclusion:
------------------------------------------------------------
These tracks looks like CDDA with probability 100%
Доп. информация:
 
Album Info & AAJ Review
Recorded March 28, 2003 live at the Vancouver East Cultural Centre
Recorded by Brad Turner
Mixed, edited and mastered by Dylan Van Der Schyff
Cover photo by Leslie Pomeroy
Produced by Ron Samworth, Dylan Van Der Schyff and Barking Sphinx Performance Society
The intersection of the four Vancouver-based musicians - Samworth, Lee, Clark and Van Der Schyff (collectively known as Talking Pictures) - with Seattle based Wayne Horvitz has roots that extend back to 1987 when Wayne was in residence at the Western Front working with Vancouver musicians, including Ron Samworth. In 1992, when Talking Pictures was formed, the New York Downtown scene, of which Horvitz was a central figure, was one of the primary inspirations of the group. The music on this CD is a programme of live improvisations and represents the first meeting of this particular ensemble of artists.
With Intersection Poems, Horvitz collaborates for the first time with the Vancouver-based quartet Talking Pictures. The one-time prime Downtown NYCer, now Seattle-based, Horvitz experiments with the interactive sound of three strings (guitarist Ron Samworth, cellist Peggy Lee, and himself on piano), brass (trumpeter Bill Clarke), and percussion (drummer Dylan van der Schyff). Van der Schyff's percussive approach spreads out each and every piece with understated rhythms and small instrument effects and, with Clark's sometimes long and un-brassy lines, the collective moves frequently as if a string quintet.
Many of the seven tracks seem dedicated to a different or altering protagonist. The opening track ("Merge a la Gauche ) finds Horvitz's mood-inducing single notes on piano sonically overlapped by cello, trumpet, guitar, and cymbal effects. The minimalist approach continues—"Elk Crossing can be heard as a duo of piano (performed inside and out) and percussion, when in actuality all participants are centrally involved in venturesome understatement. Lee, an unheralded player, continues to help the instrument's notoriety in jazz. She leads the way through the title track, accompanied by multiple treble piano notes and high-pitched cymbal effects reacting to her warm yet mysterious arco.
The sound and mix is top-notch, allowing the listener to really hear the full range of spatial and textural contributions. The dark reverberating piano clusters by Horvitz will shake you to the core in "Children At Play ; "Begin Two Way is celebratory, assisting the magical crack of a morning dawn; "...When Amber Flashing starts in your face, gradually backs off, moving further and further, winding up in a land of contemplation with its less rhythmic legato lines. Sit squarely between the speakers for this adventure and buckle your seat belts. You are most certainly going places.
 
Состав
Wayne Horvitz: piano
Ron Samworth: guitar
Peggy Lee: cello
Bill Clark: trumpet
Dylan Van Der Schyff: drums
По всем вопросам пишите личное сообщение пользователю M0p94ok.
01:32
192
Нет комментариев. Ваш будет первым!