Вы используете незарегистрированную версию компонента "Вкладки"!

Поиск

(Avant-Garde Jazz, Free Improvisation) [CD] Fred Frith, Joelle Leandre, Jonathan Segel - Tempted To Smile - 2003, FLAC (tracks+.cue), lossless

Треклист:
Fred Frith, Joelle Leandre, Jonathan Segel / Tempted To Smile
Жанр: Avant-Garde Jazz, Free Improvisation
Носитель: CD
Страна-производитель диска: Canada
Год издания: 2003
Издатель (лейбл): Spool
Номер по каталогу: SPL120 / LINE 20
Страна: UK, Canada
Аудиокодек: FLAC (*.flac)
Тип рипа: tracks+.cue
Битрейт аудио: lossless
Продолжительность: 48:45
Источник (релизер): свой фирменный диск
Наличие сканов в содержимом раздачи:
Треклист:
1. From Ice To Steam 3:43
2. Portrait Of A Boy 3:31
3. Sideshow 2:22
4. The Glass Of Absinthe 4:29
5. Smell My Halo 2:42
6. The Palace At 4 Am 6:32
7. Hey Sonny 4:31
8. La Valise 5:39
9. Goodbye Pop 3:34
10. Tempted To Smile 5:09
11. Housecleaning At The Beginning Of The New Year 6:06
 
Лог создания рипа
Exact Audio Copy V1.0 beta 3 from 29. August 2011
EAC extraction logfile from 23. March 2014, 21:12
Fred Frith, Joelle Leandre, Jonathan Segel / Tempted To Smile
Used drive : PIONEER DVD-RW DVR-115D Adapter: 0 ID: 0
Read mode : Secure
Utilize accurate stream : Yes
Defeat audio cache : Yes
Make use of C2 pointers : No
Read offset correction : 48
Overread into Lead-In and Lead-Out : No
Fill up missing offset samples with silence : Yes
Delete leading and trailing silent blocks : No
Null samples used in CRC calculations : Yes
Used interface : Installed external ASPI interface
Gap handling : Appended to previous track
Used output format : User Defined Encoder
Selected bitrate : 896 kBit/s
Quality : High
Add ID3 tag : No
Command line compressor : C:\Program Files\Exact Audio Copy\FLAC\FLAC.EXE
Additional command line options : -6 -V -T "ARTIST=%artist%" -T "TITLE=%title%" -T "ALBUM=%albumtitle%" -T "DATE=%year%" -T "TRACKNUMBER=%tracknr%" -T "GENRE=%genre%" -T "COMMENT=%comment%" -T "BAND=%albuminterpret%" -T "COMPOSER=%composer%" %haslyrics%--tag-from-file=LYRICS="%lyricsfile%"%haslyrics% -T "DISCNUMBER=%cdnumber%" -T "TOTALDISCS=%totalcds%" -T "TOTALTRACKS=%numtracks%" %hascover%--picture="%coverfile%"%hascover% %source% -o %dest%
TOC of the extracted CD
Track | Start | Length | Start sector | End sector
---------------------------------------------------------
1 | 0:00.00 | 3:45.35 | 0 | 16909
2 | 3:45.35 | 3:33.61 | 16910 | 32945
3 | 7:19.21 | 2:24.04 | 32946 | 43749
4 | 9:43.25 | 4:31.69 | 43750 | 64143
5 | 14:15.19 | 2:45.21 | 64144 | 76539
6 | 17:00.40 | 6:34.15 | 76540 | 106104
7 | 23:34.55 | 4:33.51 | 106105 | 126630
8 | 28:08.31 | 5:41.52 | 126631 | 152257
9 | 33:50.08 | 3:37.12 | 152258 | 168544
10 | 37:27.20 | 5:12.45 | 168545 | 191989
11 | 42:39.65 | 6:06.04 | 191990 | 219443
Track 1
Filename D:\zzz\01 - From Ice To Steam.wav
Pre-gap length 0:00:02.00
Peak level 97.7 %
Extraction speed 4.2 X
Track quality 100.0 %
Test CRC C4925676
Copy CRC C4925676
Track not present in AccurateRip database
Copy OK
Track 2
Filename D:\zzz\02 - Portrait Of A Boy.wav
Pre-gap length 0:00:01.60
Peak level 97.7 %
Extraction speed 4.0 X
Track quality 99.9 %
Test CRC 4457C43D
Copy CRC 4457C43D
Track not present in AccurateRip database
Copy OK
Track 3
Filename D:\zzz\03 - Sideshow.wav
Pre-gap length 0:00:01.60
Peak level 97.7 %
Extraction speed 3.8 X
Track quality 99.9 %
Test CRC AED85331
Copy CRC AED85331
Track not present in AccurateRip database
Copy OK
Track 4
Filename D:\zzz\04 - The Glass Of Absinthe.wav
Pre-gap length 0:00:01.60
Peak level 97.7 %
Extraction speed 4.8 X
Track quality 99.9 %
Test CRC 95AE86E9
Copy CRC 95AE86E9
Track not present in AccurateRip database
Copy OK
Track 5
Filename D:\zzz\05 - Smell My Halo.wav
Pre-gap length 0:00:02.37
Peak level 97.7 %
Extraction speed 5.3 X
Track quality 100.0 %
Test CRC DC31CBA1
Copy CRC DC31CBA1
Track not present in AccurateRip database
Copy OK
Track 6
Filename D:\zzz\06 - The Palace At 4 Am.wav
Pre-gap length 0:00:02.60
Peak level 97.7 %
Extraction speed 6.3 X
Track quality 100.0 %
Test CRC 7C768856
Copy CRC 7C768856
Track not present in AccurateRip database
Copy OK
Track 7
Filename D:\zzz\07 - Hey Sonny.wav
Pre-gap length 0:00:01.60
Peak level 97.7 %
Extraction speed 6.5 X
Track quality 100.0 %
Test CRC 2BA0BB51
Copy CRC 2BA0BB51
Track not present in AccurateRip database
Copy OK
Track 8
Filename D:\zzz\08 - La Valise.wav
Pre-gap length 0:00:01.60
Peak level 97.7 %
Extraction speed 7.0 X
Track quality 100.0 %
Test CRC A4193CCC
Copy CRC A4193CCC
Track not present in AccurateRip database
Copy OK
Track 9
Filename D:\zzz\09 - Goodbye Pop.wav
Pre-gap length 0:00:01.60
Peak level 97.7 %
Extraction speed 6.8 X
Track quality 100.0 %
Test CRC 29D4180F
Copy CRC 29D4180F
Track not present in AccurateRip database
Copy OK
Track 10
Filename D:\zzz\10 - Tempted To Smile.wav
Pre-gap length 0:00:02.22
Peak level 97.7 %
Extraction speed 7.4 X
Track quality 100.0 %
Test CRC 2A8DC04C
Copy CRC 2A8DC04C
Track not present in AccurateRip database
Copy OK
Track 11
Filename D:\zzz\11 - Housecleaning At The Beginning Of The New Year.wav
Pre-gap length 0:00:02.60
Peak level 97.7 %
Extraction speed 7.9 X
Track quality 100.0 %
Test CRC 00644FF2
Copy CRC 00644FF2
Track not present in AccurateRip database
Copy OK
None of the tracks are present in the AccurateRip database
No errors occurred
End of status report
==== Log checksum F6148EE4EB7ED4CC6A953E5E0F213D450F421857F6B2D0E812EED500914A9D05 ====
 
Содержание индексной карты (.CUE)
REM GENRE Jazz
REM DATE 2003
REM DISCID 830B6D0B
REM COMMENT "ExactAudioCopy v1.0b3"
PERFORMER "Fred Frith, Joelle Leandre, Jonathan Segel"
TITLE "Tempted To Smile"
FILE "01 - From Ice To Steam.wav" WAVE
TRACK 01 AUDIO
TITLE "From Ice To Steam"
PERFORMER "Fred Frith, Joelle Leandre, Jonathan Segel"
FLAGS DCP
INDEX 01 00:00:00
TRACK 02 AUDIO
TITLE "Portrait Of A Boy"
PERFORMER "Fred Frith, Joelle Leandre, Jonathan Segel"
FLAGS DCP
INDEX 00 03:43:50
FILE "02 - Portrait Of A Boy.wav" WAVE
INDEX 01 00:00:00
TRACK 03 AUDIO
TITLE "Sideshow"
PERFORMER "Fred Frith, Joelle Leandre, Jonathan Segel"
FLAGS DCP
INDEX 00 03:32:01
FILE "03 - Sideshow.wav" WAVE
INDEX 01 00:00:00
TRACK 04 AUDIO
TITLE "The Glass Of Absinthe"
PERFORMER "Fred Frith, Joelle Leandre, Jonathan Segel"
FLAGS DCP
INDEX 00 02:22:19
FILE "04 - The Glass Of Absinthe.wav" WAVE
INDEX 01 00:00:00
TRACK 05 AUDIO
TITLE "Smell My Halo"
PERFORMER "Fred Frith, Joelle Leandre, Jonathan Segel"
FLAGS DCP
INDEX 00 04:29:32
FILE "05 - Smell My Halo.wav" WAVE
INDEX 01 00:00:00
TRACK 06 AUDIO
TITLE "The Palace At 4 Am"
PERFORMER "Fred Frith, Joelle Leandre, Jonathan Segel"
FLAGS DCP
INDEX 00 02:42:36
FILE "06 - The Palace At 4 Am.wav" WAVE
INDEX 01 00:00:00
TRACK 07 AUDIO
TITLE "Hey Sonny"
PERFORMER "Fred Frith, Joelle Leandre, Jonathan Segel"
FLAGS DCP
INDEX 00 06:32:30
FILE "07 - Hey Sonny.wav" WAVE
INDEX 01 00:00:00
TRACK 08 AUDIO
TITLE "La Valise"
PERFORMER "Fred Frith, Joelle Leandre, Jonathan Segel"
FLAGS DCP
INDEX 00 04:31:66
FILE "08 - La Valise.wav" WAVE
INDEX 01 00:00:00
TRACK 09 AUDIO
TITLE "Goodbye Pop"
PERFORMER "Fred Frith, Joelle Leandre, Jonathan Segel"
FLAGS DCP
INDEX 00 05:39:67
FILE "09 - Goodbye Pop.wav" WAVE
INDEX 01 00:00:00
TRACK 10 AUDIO
TITLE "Tempted To Smile"
PERFORMER "Fred Frith, Joelle Leandre, Jonathan Segel"
FLAGS DCP
INDEX 00 03:34:65
FILE "10 - Tempted To Smile.wav" WAVE
INDEX 01 00:00:00
TRACK 11 AUDIO
TITLE "Housecleaning At The Beginning Of The New Year"
PERFORMER "Fred Frith, Joelle Leandre, Jonathan Segel"
FLAGS DCP
INDEX 00 05:09:60
FILE "11 - Housecleaning At The Beginning Of The New Year.wav" WAVE
INDEX 01 00:00:00
 
Лог проверки качества
d:\>d:\aucdtect -d/-m0 d:\zzz\*.wav
auCDtect: CD records authenticity detector, version 0.8.2
Copyright (c) 2004 Oleg Berngardt. All rights reserved.
Copyright (c) 2004 Alexander Djourik. All rights reserved.
------------------------------------------------------------
Processing file: [01. From Ice To Steam.wav]
------------------------------------------------------------
This track looks like CDDA with probability 100%
------------------------------------------------------------
Processing file: [02. Portrait Of A Boy.wav]
------------------------------------------------------------
This track looks like CDDA with probability 100%
------------------------------------------------------------
Processing file: [03. Sideshow.wav]
------------------------------------------------------------
This track looks like CDDA with probability 100%
------------------------------------------------------------
Processing file: [04. The Glass Of Absinthe.wav]
------------------------------------------------------------
This track looks like CDDA with probability 100%
------------------------------------------------------------
Processing file: [05. Smell My Halo.wav]
------------------------------------------------------------
This track looks like CDDA with probability 100%
------------------------------------------------------------
Processing file: [06. The Palace At 4 Am.wav]
------------------------------------------------------------
This track looks like CDDA with probability 99%
------------------------------------------------------------
Processing file: [07. Hey Sonny.wav]
------------------------------------------------------------
This track looks like CDDA with probability 100%
------------------------------------------------------------
Processing file: [08. La Valise.wav]
------------------------------------------------------------
This track looks like CDDA with probability 99%
------------------------------------------------------------
Processing file: [09. Goodbye Pop.wav]
------------------------------------------------------------
This track looks like CDDA with probability 100%
------------------------------------------------------------
Processing file: [10. Tempted To Smile.wav]
------------------------------------------------------------
This track looks like CDDA with probability 100%
------------------------------------------------------------
Processing file: [11. Housecleaning At The Beginning Of The New Year.wav]
------------------------------------------------------------
This track looks like CDDA with probability 100%
------------------------------------------------------------
Final Conclusion:
------------------------------------------------------------
These tracks looks like CDDA with probability 100%
Доп. информация:
 
Album Info & AMG Review
All titles (C)2003 Fred Frith, Joelle Leandre, Jonathan Siegel
Recorded November 2002, mixed March 2003 at Guerilla Recording
Mastered March 2003 at the Headless Buddha
All by Myles Boisen
Cover art by Richard Gann
Photos by Jonathan and Myles
Layout by Amy Heggie
The string trio is one of the most versatile vehicles for free improvisation largely due to the broad variety of sounds and the flexibility of the instruments. It is also one of the few groupings that remains partially untapped. Sitting somewhat uncomfortably on the edges of the genre, experienced pros Fred Frith and Joëlle Léandre are joined by Jonathan Segel for an inventive, exploratory, and often disturbing set of improvisations that demand close attention from the listener because of both the level of detail and abstraction. Frith and Léandre have often flirted with cross-genres, the former primarily coming from an avant-rock perspective, while the bassist is rightly identified more with avant-garde jazz and modern classical composition. They meet on common ground here, with no direct hints at anything in their pasts and Segel (also coming from a mostly rock perspective) has no difficulty fitting in. Sometimes, though, there is a slight tedium that seeps through, a drifting that seems to be the result of a lack of direction. There are splendid moments on several tracks. "La Valise," for instance, has casual conversational voices (primarily that of Léandre) inserted in an attractively absurd manner and juxtaposed against the strings. Also, "Tempted to Smile," with its gentle, offhanded approach, may generally leave the listener feeling that he/she is only eavesdropping on a private musical conversation to which he/she is not the intended beneficiary.
 
Состав
Fred Frith: guitar, etc. - left channel
Joelle Leandre: contrabass - centre
Jonathan Segel: violin, guitar - right channel
По всем вопросам пишите личное сообщение пользователю M0p94ok.
01:31
161
Нет комментариев. Ваш будет первым!