Вы используете незарегистрированную версию компонента "Вкладки"!

Поиск

(Free Improvisation, Free Jazz) [CD] Ab Baars, Meinrad Kneer, Bill Elgart - Give No Quarter - 2013, FLAC (image+.cue), lossless

Треклист:
Baars, Kneer, Elgart / Give No Quarter
Жанр: Free Improvisation , Free Jazz
Носитель: CD
Страна-производитель диска: Netherlands
Год издания: 2013
Издатель (лейбл): Evil Rabbit Records
Номер по каталогу: ERR 20
Аудиокодек: FLAC (*.flac)
Тип рипа: image+.cue
Битрейт аудио: lossless
Продолжительность: 63:20
Источник (релизер): CD
Наличие сканов в содержимом раздачи: нет
Треклист:
1 Anacrusis 5:09
2 Eurus 5:49
3 Give No Quarter 5:24
4 Zephyrus 3:34
5 Late Preamble 2:26
6 Song For Our Predecessors 4:44
7 Specific Gravity 5:31
8 Notus 3:47
9 Logical Consistency 4:25
10 Tale Of The Bewildered Bee 6:49
11 Complementary Progress 5:00
12 Fundamental Ambush 4:59
13 Boreas 5:05
 
Лог создания рипа
Exact Audio Copy V1.0 beta 2 from 29. April 2011
EAC extraction logfile from 24. April 2014, 11:30
Baars, Kneer, Elgart / Give no quarter
Used drive : Optiarc DVD RW AD-7170A Adapter: 0 ID: 0
Read mode : Secure
Utilize accurate stream : Yes
Defeat audio cache : Yes
Make use of C2 pointers : No
Read offset correction : 48
Overread into Lead-In and Lead-Out : No
Fill up missing offset samples with silence : Yes
Delete leading and trailing silent blocks : No
Null samples used in CRC calculations : Yes
Used interface : Native Win32 interface for Win NT & 2000
Used output format : User Defined Encoder
Selected bitrate : 320 kBit/s
Quality : High
Add ID3 tag : No
Command line compressor : C:\Program Files\Exact Audio Copy\Flac\flac.exe
Additional command line options : -V -8 -T "Date=%year%" -T "Genre=%genre%" %source%
TOC of the extracted CD
Track | Start | Length | Start sector | End sector
---------------------------------------------------------
1 | 0:00.00 | 5:11.41 | 0 | 23365
2 | 5:11.41 | 5:52.01 | 23366 | 49766
3 | 11:03.42 | 5:27.37 | 49767 | 74328
4 | 16:31.04 | 3:38.10 | 74329 | 90688
5 | 20:09.14 | 2:27.51 | 90689 | 101764
6 | 22:36.65 | 4:48.04 | 101765 | 123368
7 | 27:24.69 | 5:33.14 | 123369 | 148357
8 | 32:58.08 | 3:49.67 | 148358 | 165599
9 | 36:48.00 | 4:28.72 | 165600 | 185771
10 | 41:16.72 | 6:54.02 | 185772 | 216823
11 | 48:10.74 | 5:02.51 | 216824 | 239524
12 | 53:13.50 | 5:01.65 | 239525 | 262164
13 | 58:15.40 | 5:05.09 | 262165 | 285048
Range status and errors
Selected range
Filename K:\ЕАС\Baars, Kneer, Elgart - Give no quarter.wav
Peak level 100.0 %
Extraction speed 2.1 X
Range quality 100.0 %
Test CRC 57B9A0CF
Copy CRC 57B9A0CF
Copy OK
No errors occurred
AccurateRip summary
Track 1 not present in database
Track 2 not present in database
Track 3 not present in database
Track 4 not present in database
Track 5 not present in database
Track 6 not present in database
Track 7 not present in database
Track 8 not present in database
Track 9 not present in database
Track 10 not present in database
Track 11 not present in database
Track 12 not present in database
Track 13 not present in database
None of the tracks are present in the AccurateRip database
End of status report
==== Log checksum E0D610B38EDD164213B325B68649911B38888A83CECE629D9FF7ECCDD90305E1 ====
 
Содержание индексной карты (.CUE)
REM GENRE Jazz
REM DATE 2013
REM DISCID C00ED80D
REM COMMENT "ExactAudioCopy v1.0b2"
PERFORMER "Baars, Kneer, Elgart"
TITLE "Give no quarter"
FILE "Baars, Kneer, Elgart - Give no quarter.flac" WAVE
TRACK 01 AUDIO
TITLE "Anacrusis"
PERFORMER "Baars, Kneer, Elgart"
ISRC NLHM20901301
INDEX 01 00:00:00
TRACK 02 AUDIO
TITLE "Eurus"
PERFORMER "Baars, Kneer, Elgart"
ISRC NLHM20901302
INDEX 00 05:09:34
INDEX 01 05:11:41
TRACK 03 AUDIO
TITLE "Give No Quarter"
PERFORMER "Baars, Kneer, Elgart"
ISRC NLHM20901303
INDEX 00 11:00:42
INDEX 01 11:03:42
TRACK 04 AUDIO
TITLE "Zephyrus"
PERFORMER "Baars, Kneer, Elgart"
ISRC NLHM20901304
INDEX 00 16:28:04
INDEX 01 16:31:04
TRACK 05 AUDIO
TITLE "Late Preamble"
PERFORMER "Baars, Kneer, Elgart"
ISRC NLHM20901305
INDEX 00 20:05:14
INDEX 01 20:09:14
TRACK 06 AUDIO
TITLE "Song For Our Predecessors"
PERFORMER "Baars, Kneer, Elgart"
ISRC NLHM20901306
INDEX 00 22:34:65
INDEX 01 22:36:65
TRACK 07 AUDIO
TITLE "Specific Gravity"
PERFORMER "Baars, Kneer, Elgart"
ISRC NLHM20901307
INDEX 00 27:20:69
INDEX 01 27:24:69
TRACK 08 AUDIO
TITLE "Notus"
PERFORMER "Baars, Kneer, Elgart"
ISRC NLHM20901308
INDEX 00 32:56:08
INDEX 01 32:58:08
TRACK 09 AUDIO
TITLE "Logical Consistency"
PERFORMER "Baars, Kneer, Elgart"
ISRC NLHM20901309
INDEX 00 36:45:00
INDEX 01 36:48:00
TRACK 10 AUDIO
TITLE "Tale of The Bewildered Bee "
PERFORMER "Baars, Kneer, Elgart"
ISRC NLHM20901310
INDEX 00 41:12:72
INDEX 01 41:16:72
TRACK 11 AUDIO
TITLE "Complementary Progress"
PERFORMER "Baars, Kneer, Elgart"
ISRC NLHM20901311
INDEX 00 48:05:74
INDEX 01 48:10:74
TRACK 12 AUDIO
TITLE "Fundamental Ambush"
PERFORMER "Baars, Kneer, Elgart"
ISRC NLHM20901312
INDEX 00 53:10:50
INDEX 01 53:13:50
TRACK 13 AUDIO
TITLE "Boreas"
PERFORMER "Baars, Kneer, Elgart"
ISRC NLHM20901313
INDEX 00 58:12:40
INDEX 01 58:15:40
Доп. информация: Recorded October 9, 2011 at Soound Balance Studio, Foxhol, The Netherlands
 
Об исполнителе (группе)
Dutch musician-composer and bandleader Ab Baars performs on tenor saxophone, clarinet and shakuhachi. He focuses mainly on Ab Baars Solo, Ab Baars Trio, Duo Baars-Henneman and the ICP Orchestra.
 
Состав
Double Bass – Meinrad Kneer
Drums – Bill Elgart
Tenor Saxophone, Clarinet, Shakuhachi – Ab Baars
По всем вопросам пишите личное сообщение пользователю M0p94ok.
01:30
159
Нет комментариев. Ваш будет первым!