Поиск

( free improvisation, experimental) [cd] Paul Dresher & Ned Rothenberg - Opposites Attract (1991), FLAC (tracks+.cue), lossless

Треклист:


Paul Dresher & Ned Rothenberg - Opposites Attract (1991)

Жанр: free improvisation, experimental
Год выпуска: 1991
Издатель (лейбл):New World Records/CounterCurrents / 80411-2
Формат: FLAC (tracks+.cue)
Битрейт аудио: lossless
Продолжительность 56`29
Источник: what.cd, mxp

tracks

1 Orient And Tropic 11:04
2 The Long Seven 3:17
3 Yuuniik 2:30
The Untold Story
4 Sidi Infi / Bolero In Straight Jabs 4:13
5 The Edge Of Sleep 3:57
6 Shriek 4:10
7 The Paddling Floes 7:02
8 This Endup 4:15
-
9 Opposites Attack 5:13
10 Skronk 4:16
11 Straight Jabs Redux / Finale 6:07


 
.log
Exact Audio Copy V1.0 beta 3 from 29. August 2011
EAC extraction logfile from 25. April 2014, 7:21
Various Artists / Opposites Attract
Used drive : hp CDDVDW SH-216BB Adapter: 0 ID: 0
Read mode : Secure
Utilize accurate stream : Yes
Defeat audio cache : Yes
Make use of C2 pointers : No
Read offset correction : 6
Overread into Lead-In and Lead-Out : No
Fill up missing offset samples with silence : Yes
Delete leading and trailing silent blocks : No
Null samples used in CRC calculations : Yes
Used interface : Native Win32 interface for Win NT & 2000
Gap handling : Appended to previous track
Used output format : User Defined Encoder
Selected bitrate : 1024 kBit/s
Quality : High
Add ID3 tag : No
Command line compressor : C:\Program Files (x86)\Exact Audio Copy\Flac\flac.exe
Additional command line options : -8 -V -T "ARTIST=%artist%" -T "TITLE=%title%" -T "ALBUM=%albumtitle%" -T "DATE=%year%" -T "TRACKNUMBER=%tracknr%" -T "GENRE=%genre%" -T "PERFORMER=%albuminterpret%" -T "COMPOSER=%composer%" %haslyrics%--tag-from-file=LYRICS="%lyricsfile%"%haslyrics% -T "ALBUMARTIST=%albumartist%" -T "DISCNUMBER=%cdnumber%" -T "TOTALDISCS=%totalcds%" -T "TOTALTRACKS=%numtracks%" -T "COMMENT=%comment%" %source% -o %dest%
TOC of the extracted CD
Track | Start | Length | Start sector | End sector
---------------------------------------------------------
1 | 0:00.00 | 11:08.02 | 0 | 50101
2 | 11:08.02 | 3:17.58 | 50102 | 64934
3 | 14:25.60 | 2:35.02 | 64935 | 76561
4 | 17:00.62 | 4:13.48 | 76562 | 95584
5 | 21:14.35 | 3:57.12 | 95585 | 113371
6 | 25:11.47 | 4:10.30 | 113372 | 132151
7 | 29:22.02 | 7:02.65 | 132152 | 163866
8 | 36:24.67 | 4:19.35 | 163867 | 183326
9 | 40:44.27 | 5:16.73 | 183327 | 207099
10 | 46:01.25 | 4:20.12 | 207100 | 226611
11 | 50:21.37 | 6:07.20 | 226612 | 254156
Track 1
Filename C:\EAC\Paul Dresher, Ned Rothenberg - Opposites Attract (1991) [FLAC]\01 - Orient and Tropic.wav
Pre-gap length 0:00:02.00
Peak level 79.0 %
Extraction speed 3.4 X
Track quality 100.0 %
Test CRC 9F2E8C89
Copy CRC 9F2E8C89
Accurately ripped (confidence 2) [B6AA68DB] (AR v2)
Copy OK
Track 2
Filename C:\EAC\Paul Dresher, Ned Rothenberg - Opposites Attract (1991) [FLAC]\02 - The Long Seven.wav
Pre-gap length 0:00:03.69
Peak level 79.2 %
Extraction speed 3.4 X
Track quality 100.0 %
Test CRC 0BFFFB2C
Copy CRC 0BFFFB2C
Accurately ripped (confidence 2) [B7D4224C] (AR v2)
Copy OK
Track 3
Filename C:\EAC\Paul Dresher, Ned Rothenberg - Opposites Attract (1991) [FLAC]\03 - Yuuniik.wav
Pre-gap length 0:00:00.04
Peak level 67.5 %
Extraction speed 2.4 X
Track quality 99.9 %
Test CRC 63A1FF7C
Copy CRC 63A1FF7C
Accurately ripped (confidence 2) [1134FE6B] (AR v2)
Copy OK
Track 4
Filename C:\EAC\Paul Dresher, Ned Rothenberg - Opposites Attract (1991) [FLAC]\04 - The Untold Story - Sidi Infi , Bolero in Straight Jabs.wav
Pre-gap length 0:00:04.46
Peak level 99.9 %
Extraction speed 3.0 X
Track quality 99.9 %
Test CRC 1A068DD8
Copy CRC 1A068DD8
Accurately ripped (confidence 2) [29867288] (AR v2)
Copy OK
Track 5
Filename C:\EAC\Paul Dresher, Ned Rothenberg - Opposites Attract (1991) [FLAC]\05 - The Untold Story - The Edge of Sleep.wav
Pre-gap length 0:00:00.04
Peak level 74.6 %
Extraction speed 4.0 X
Track quality 100.0 %
Test CRC 5BB446F1
Copy CRC 5BB446F1
Accurately ripped (confidence 2) [797A7510] (AR v2)
Copy OK
Track 6
Filename C:\EAC\Paul Dresher, Ned Rothenberg - Opposites Attract (1991) [FLAC]\06 - The Untold Story - Shriek.wav
Pre-gap length 0:00:00.02
Peak level 97.2 %
Extraction speed 4.2 X
Track quality 100.0 %
Test CRC F8BFBEC8
Copy CRC F8BFBEC8
Accurately ripped (confidence 2) [A2DB8515] (AR v2)
Copy OK
Track 7
Filename C:\EAC\Paul Dresher, Ned Rothenberg - Opposites Attract (1991) [FLAC]\07 - The Untold Story - The Paddling Floes.wav
Pre-gap length 0:00:00.02
Peak level 61.2 %
Extraction speed 4.7 X
Track quality 100.0 %
Test CRC 35F281FC
Copy CRC 35F281FC
Accurately ripped (confidence 2) [3414E640] (AR v2)
Copy OK
Track 8
Filename C:\EAC\Paul Dresher, Ned Rothenberg - Opposites Attract (1991) [FLAC]\08 - The Untold Story - This Endup.wav
Pre-gap length 0:00:00.26
Peak level 86.0 %
Extraction speed 4.7 X
Track quality 100.0 %
Test CRC 890398A9
Copy CRC 890398A9
Accurately ripped (confidence 2) [44C74544] (AR v2)
Copy OK
Track 9
Filename C:\EAC\Paul Dresher, Ned Rothenberg - Opposites Attract (1991) [FLAC]\09 - Opposites Attack.wav
Pre-gap length 0:00:04.16
Peak level 65.7 %
Extraction speed 5.0 X
Track quality 100.0 %
Test CRC C90F5780
Copy CRC C90F5780
Accurately ripped (confidence 2) [00743EF0] (AR v2)
Copy OK
Track 10
Filename C:\EAC\Paul Dresher, Ned Rothenberg - Opposites Attract (1991) [FLAC]\10 - Skronk.wav
Pre-gap length 0:00:03.24
Peak level 56.4 %
Extraction speed 5.0 X
Track quality 100.0 %
Test CRC E527B40D
Copy CRC E527B40D
Accurately ripped (confidence 2) [8741ADED] (AR v2)
Copy OK
Track 11
Filename C:\EAC\Paul Dresher, Ned Rothenberg - Opposites Attract (1991) [FLAC]\11 - Straight Jabs Redux , Finale.wav
Pre-gap length 0:00:03.62
Peak level 78.8 %
Extraction speed 5.4 X
Track quality 100.0 %
Test CRC 1078CC4A
Copy CRC 1078CC4A
Accurately ripped (confidence 2) [814EE329] (AR v2)
Copy OK
All tracks accurately ripped
No errors occurred
End of status report
---- CUETools DB Plugin V2.1.3
[CTDB TOCID: z3hDHy0WeOiH_pwONYE9QrdgxVk-] found, Submit result: z3hDHy0WeOiH_pwONYE9QrdgxVk- has been confirmed
[ead5c4bb] (2/2) Accurately ripped
==== Log checksum 4DD0B0F875981271E129ED9449F5F9F021AC0AC338C8E4F272066261640D7F07 ====
 
.cue
REM GENRE Jazz
REM DATE 1991
REM DISCID 900D3C0B
REM COMMENT "ExactAudioCopy v1.0b3"
FILE "01 - Orient and Tropic.wav" WAVE
TRACK 01 AUDIO
INDEX 01 00:00:00
TRACK 02 AUDIO
INDEX 00 11:04:25
FILE "02 - The Long Seven.wav" WAVE
INDEX 01 00:00:00
TRACK 03 AUDIO
INDEX 00 03:17:55
FILE "03 - Yuuniik.wav" WAVE
INDEX 01 00:00:00
TRACK 04 AUDIO
INDEX 00 02:30:42
FILE "04 - The Untold Story - Sidi Infi , Bolero in Straight Jabs.wav" WAVE
INDEX 01 00:00:00
TRACK 05 AUDIO
INDEX 00 04:13:45
FILE "05 - The Untold Story - The Edge of Sleep.wav" WAVE
INDEX 01 00:00:00
TRACK 06 AUDIO
INDEX 00 03:57:10
FILE "06 - The Untold Story - Shriek.wav" WAVE
INDEX 01 00:00:00
TRACK 07 AUDIO
INDEX 00 04:10:28
FILE "07 - The Untold Story - The Paddling Floes.wav" WAVE
INDEX 01 00:00:00
TRACK 08 AUDIO
INDEX 00 07:02:45
FILE "08 - The Untold Story - This Endup.wav" WAVE
INDEX 01 00:00:00
TRACK 09 AUDIO
INDEX 00 04:15:23
FILE "09 - Opposites Attack.wav" WAVE
INDEX 01 00:00:00
TRACK 10 AUDIO
INDEX 00 05:13:55
FILE "10 - Skronk.wav" WAVE
INDEX 01 00:00:00
TRACK 11 AUDIO
INDEX 00 04:16:40
FILE "11 - Straight Jabs Redux , Finale.wav" WAVE
INDEX 01 00:00:00

http://www.discogs.com/Paul-Dresher-Ned-Rothenberg-Opposites-Attract/release/1473802
другие релизы
По всем вопросам пишите личное сообщение пользователю M0p94ok.
01:30
193
Нет комментариев. Ваш будет первым!