Вы используете незарегистрированную версию компонента "Вкладки"!

Поиск

(Free Jazz / Free Improvisation / Avant-Garde) Bill Dixon - The Complete Remastered Recordings on Black Saint & Soul Note (9CD Set) - 2010, FLAC (tracks+.cue) lossless

(Free Jazz / Free Improvisation / Avant-Garde) Bill Dixon - The Complete Remastered Recordings on Black Saint & Soul Note (9CD Set) - 2010, FLAC (tracks+.cue) lossless
Издатель (лейбл):
Треклист:
Bill Dixon - The Complete Remastered Recordings on Black Saint & Soul Note (9CD Set)
Жанр: Free Jazz / Free Improvisation / Avant-Garde
Страна-производитель диска: Italy
Год издания диска: 2010
Издатель (лейбл): CAM LONDON Ltd. / C.A.M. Group (Creazioni Artistiche Musicali) / CAM Jazz
Номер по каталогу: BXS 1009
Страна исполнителя: USA
Аудио кодек: FLAC (*.flac)
Тип рипа: tracks+.cue
Битрейт аудио: lossless
Продолжительность: 09:15:06 (00:41:38 + 00:41:31 + 01:19:15 + 01:04:12 + 00:39:21 + 01:17:40 + 01:09:59 + 01:08:45 + 01:12:41)
Источник (релизер): net (grasprelease)
Наличие сканов в содержимом раздачи: да
9CD Set:
1. Bill Dixon in Italy - Volume 1
2. Bill Dixon in Italy - Volume 2
3. November 1981
4. Thoughts
5. Son of Sisyphus
6. Vade Mecum
7. Vade Mecum II
8. Papyrus Volume I
9. Papyrus Volume II
Track Listing:
CD1 - Bill Dixon in Italy - Volume 1
01. Summer Song/One/Morning
02. Firenze
03. Summer Song/Two/Evening
04. For Cecil Taylor
CD2 - Bill Dixon in Italy - Volume 2
01. Sketch/Firenze
02. Summer Song/Two/Evening
03. Daybreak
04. Dusk
05. Dance Piece
CD3 - November 1981
01. Webern
02. Windswept Winterset
03. Velvet
04. Llaattiinnoo Suite
05. November 1981
06. Penthesilea
07. The Second Son
08. The Sirens
09. Another Quiet Feeling
CD4 - Thoughts
01. Thoughts
02. Windows
03. For Nelson And Winnie
04. A Song For Claudia'S Children
05. Brothers
06. Points
CD5 - Son of Sisyphus
01. Silences For Jack Moore
02. Vector
03. Son Of Sisyphus
04. Schema Vi-88
05. Fusama Codex
06. Mandala Per Mendela
07. Sumi-E
08. Negoro Codex
09. Molti Molti Anna Fa
CD6 - Vade Mecum
01. Moment
02. Anamorphosis
03. Viole Nino Bixio 20
04. Pellucity
05. Vade Mecum
06. Twice Upon A Time
07. Acanthus
CD7 - Vade Mecum II
01. Valentina Di Sera
02. Tableau
03. Ebonite
04. Reflections
05. Incunabula
06. Octette #1
CD8 - Papyrus Volume I
01. Essay Di Larry Neal
02. Papyrus
03. The Statesman
04. Indirizzo Via Cimarosa Sei
05. Scribbles
06. Ritratto Di Allen Polite
07. Cinnamon
08. Quadro De Henry Dumas
09. Palimpsest
10. Steps
11. Sine Qua Non
12. Quadro Di N.H. Pritchard
CD9 - Papyrus Volume II
01. Silver Point: Jeanne Phillips
02. Papyrus
03. Pyxis
04. Squares
05. Epigraphy
06. Sine Qua Non #2
07. Couplet
08. Four: Vi: 1998
09. Crawlspace
10. Suri-Mono: Louise Wade
http://www.camjazz.com/site/index.php?site=&path=cd&idcd=1692&label=cgj&alpha=A
 
Логи (EAC Logs)
 
CD1
Exact Audio Copy V0.99 prebeta 5 from 4. May 2009
EAC extraction logfile from 28. December 2010, 22:56
Bill Dixon / Bill Dixon in Italy - Volume 1 (Black Saint, 1980 - 2010 remaster)
Used drive : TSSTcorpDVD+-RW TS-T633A Adapter: 1 ID: 0
Read mode : Secure
Utilize accurate stream : Yes
Defeat audio cache : Yes
Make use of C2 pointers : No
Read offset correction : 6
Overread into Lead-In and Lead-Out : No
Fill up missing offset samples with silence : Yes
Delete leading and trailing silent blocks : No
Null samples used in CRC calculations : Yes
Used interface : Installed external ASPI interface
Gap handling : Appended to previous track
Used output format : User Defined Encoder
Selected bitrate : 640 kBit/s
Quality : High
Add ID3 tag : Yes
Command line compressor : C:\Program Files (x86)\Exact Audio Copy\Flac\flac.exe
Additional command line options : -6 -V -T "ARTIST=%a" -T "TITLE=%t" -T "ALBUM=%g" -T "DATE=%y" -T "TRACKNUMBER=%n" -T "GENRE=%m" -T "COMMENT=%e" %s -o %d
TOC of the extracted CD
Track | Start | Length | Start sector | End sector
---------------------------------------------------------
1 | 0:00.00 | 4:11.29 | 0 | 18853
2 | 4:11.29 | 4:47.53 | 18854 | 40431
3 | 8:59.07 | 12:50.57 | 40432 | 98238
4 | 21:49.64 | 19:48.55 | 98239 | 187393
Track 1
Filename C:\Users\K Scott Handley\Desktop\Muzik\+++ RIPS\Bill Dixon - - Bill Dixon in Italy - Volume 1 (Black Saint, 1980 - 2010 remaster)\01 - Summer Song - One - Morning.wav
Pre-gap length 0:00:02.00
Peak level 87.9 %
Track quality 99.9 %
Copy CRC 77F69101
Track not present in AccurateRip database
Copy OK
Track 2
Filename C:\Users\K Scott Handley\Desktop\Muzik\+++ RIPS\Bill Dixon - - Bill Dixon in Italy - Volume 1 (Black Saint, 1980 - 2010 remaster)\02 - Firenze.wav
Peak level 94.8 %
Track quality 100.0 %
Copy CRC 8669652E
Track not present in AccurateRip database
Copy OK
Track 3
Filename C:\Users\K Scott Handley\Desktop\Muzik\+++ RIPS\Bill Dixon - - Bill Dixon in Italy - Volume 1 (Black Saint, 1980 - 2010 remaster)\03 - Summer Song - Two - Evening.wav
Peak level 95.2 %
Track quality 100.0 %
Copy CRC F45CBD45
Track not present in AccurateRip database
Copy OK
Track 4
Filename C:\Users\K Scott Handley\Desktop\Muzik\+++ RIPS\Bill Dixon - - Bill Dixon in Italy - Volume 1 (Black Saint, 1980 - 2010 remaster)\04 - For Cecil Taylor.wav
Peak level 95.2 %
Track quality 100.0 %
Copy CRC 92D9207C
Track not present in AccurateRip database
Copy OK
None of the tracks are present in the AccurateRip database
No errors occurred
End of status report
 
CD2
Exact Audio Copy V0.99 prebeta 5 from 4. May 2009
EAC extraction logfile from 28. December 2010, 23:44
Bill Dixon / Bill Dixon in Italy - Volume Two (Soul Note, 1981 - remaster 2010)
Used drive : TSSTcorpDVD+-RW TS-T633A Adapter: 1 ID: 0
Read mode : Secure
Utilize accurate stream : Yes
Defeat audio cache : Yes
Make use of C2 pointers : No
Read offset correction : 6
Overread into Lead-In and Lead-Out : No
Fill up missing offset samples with silence : Yes
Delete leading and trailing silent blocks : No
Null samples used in CRC calculations : Yes
Used interface : Installed external ASPI interface
Gap handling : Appended to previous track
Used output format : User Defined Encoder
Selected bitrate : 640 kBit/s
Quality : High
Add ID3 tag : Yes
Command line compressor : C:\Program Files (x86)\Exact Audio Copy\Flac\flac.exe
Additional command line options : -6 -V -T "ARTIST=%a" -T "TITLE=%t" -T "ALBUM=%g" -T "DATE=%y" -T "TRACKNUMBER=%n" -T "GENRE=%m" -T "COMMENT=%e" %s -o %d
TOC of the extracted CD
Track | Start | Length | Start sector | End sector
---------------------------------------------------------
1 | 0:00.00 | 14:58.70 | 0 | 67419
2 | 14:58.70 | 7:34.13 | 67420 | 101482
3 | 22:33.08 | 3:25.30 | 101483 | 116887
4 | 25:58.38 | 2:42.71 | 116888 | 129108
5 | 28:41.34 | 12:50.18 | 129109 | 186876
Track 1
Filename C:\Users\K Scott Handley\Desktop\Muzik\+++ RIPS\Bill Dixon - 1981 - Bill Dixon in Italy - Volume Two (Soul Note, 1981 - remaster 2010)\01 - Sketch - Firenze.wav
Pre-gap length 0:00:02.00
Peak level 95.2 %
Track quality 100.0 %
Copy CRC 92E570CE
Track not present in AccurateRip database
Copy OK
Track 2
Filename C:\Users\K Scott Handley\Desktop\Muzik\+++ RIPS\Bill Dixon - 1981 - Bill Dixon in Italy - Volume Two (Soul Note, 1981 - remaster 2010)\02 - Summer Song - Two - Evening.wav
Pre-gap length 0:00:04.04
Peak level 93.1 %
Track quality 100.0 %
Copy CRC C27A3881
Track not present in AccurateRip database
Copy OK
Track 3
Filename C:\Users\K Scott Handley\Desktop\Muzik\+++ RIPS\Bill Dixon - 1981 - Bill Dixon in Italy - Volume Two (Soul Note, 1981 - remaster 2010)\03 - Summer Song - Three - Aurorea - Daybreak.wav
Pre-gap length 0:00:03.34
Peak level 84.6 %
Track quality 100.0 %
Copy CRC 0BCE74C0
Track not present in AccurateRip database
Copy OK
Track 4
Filename C:\Users\K Scott Handley\Desktop\Muzik\+++ RIPS\Bill Dixon - 1981 - Bill Dixon in Italy - Volume Two (Soul Note, 1981 - remaster 2010)\04 - Summer Song - Three - Aurorea - Dusk.wav
Pre-gap length 0:00:04.89
Peak level 70.5 %
Track quality 100.0 %
Copy CRC A8C2757F
Track not present in AccurateRip database
Copy OK
Track 5
Filename C:\Users\K Scott Handley\Desktop\Muzik\+++ RIPS\Bill Dixon - 1981 - Bill Dixon in Italy - Volume Two (Soul Note, 1981 - remaster 2010)\05 - Dance Piece.wav
Pre-gap length 0:00:04.64
Peak level 95.2 %
Track quality 100.0 %
Copy CRC 27EFD2A9
Track not present in AccurateRip database
Copy OK
None of the tracks are present in the AccurateRip database
No errors occurred
End of status report
 
CD3
Exact Audio Copy V0.99 prebeta 5 from 4. May 2009
EAC extraction logfile from 29. December 2010, 0:29
Bill Dixon / November 1981 (Soul Note, 1982 - remaster 2010)
Used drive : TSSTcorpDVD+-RW TS-T633A Adapter: 1 ID: 0
Read mode : Secure
Utilize accurate stream : Yes
Defeat audio cache : Yes
Make use of C2 pointers : No
Read offset correction : 6
Overread into Lead-In and Lead-Out : No
Fill up missing offset samples with silence : Yes
Delete leading and trailing silent blocks : No
Null samples used in CRC calculations : Yes
Used interface : Installed external ASPI interface
Gap handling : Appended to previous track
Used output format : User Defined Encoder
Selected bitrate : 640 kBit/s
Quality : High
Add ID3 tag : Yes
Command line compressor : C:\Program Files (x86)\Exact Audio Copy\Flac\flac.exe
Additional command line options : -6 -V -T "ARTIST=%a" -T "TITLE=%t" -T "ALBUM=%g" -T "DATE=%y" -T "TRACKNUMBER=%n" -T "GENRE=%m" -T "COMMENT=%e" %s -o %d
TOC of the extracted CD
Track | Start | Length | Start sector | End sector
---------------------------------------------------------
1 | 0:00.00 | 1:24.36 | 0 | 6335
2 | 1:24.36 | 15:24.36 | 6336 | 75671
3 | 16:48.72 | 6:48.27 | 75672 | 106298
4 | 23:37.24 | 15:26.74 | 106299 | 175822
5 | 39:04.23 | 10:44.18 | 175823 | 224140
6 | 49:48.41 | 10:14.04 | 224141 | 270194
7 | 60:02.45 | 5:13.50 | 270195 | 293719
8 | 65:16.20 | 7:09.19 | 293720 | 325913
9 | 72:25.39 | 6:49.39 | 325914 | 356627
Track 1
Filename C:\Users\K Scott Handley\Desktop\Muzik\+++ RIPS\Bill Dixon - 1982 - November 1981 (Soul Note, 1982 - remaster 2010)\01 - Webern.wav
Pre-gap length 0:00:02.00
Peak level 95.2 %
Track quality 100.0 %
Copy CRC 25FF05B9
Track not present in AccurateRip database
Copy OK
Track 2
Filename C:\Users\K Scott Handley\Desktop\Muzik\+++ RIPS\Bill Dixon - 1982 - November 1981 (Soul Note, 1982 - remaster 2010)\02 - Windswept Winterset.wav
Pre-gap length 0:00:00.38
Peak level 95.2 %
Track quality 99.9 %
Copy CRC 31965079
Track not present in AccurateRip database
Copy OK
Track 3
Filename C:\Users\K Scott Handley\Desktop\Muzik\+++ RIPS\Bill Dixon - 1982 - November 1981 (Soul Note, 1982 - remaster 2010)\03 - Velvet.wav
Pre-gap length 0:00:01.76
Peak level 95.2 %
Track quality 100.0 %
Copy CRC 25BF1101
Track not present in AccurateRip database
Copy OK
Track 4
Filename C:\Users\K Scott Handley\Desktop\Muzik\+++ RIPS\Bill Dixon - 1982 - November 1981 (Soul Note, 1982 - remaster 2010)\04 - Llaattiinnoo Suite.wav
Pre-gap length 0:00:02.74
Peak level 95.2 %
Track quality 100.0 %
Copy CRC 827DE285
Track not present in AccurateRip database
Copy OK
Track 5
Filename C:\Users\K Scott Handley\Desktop\Muzik\+++ RIPS\Bill Dixon - 1982 - November 1981 (Soul Note, 1982 - remaster 2010)\05 - November 1981.wav
Pre-gap length 0:00:02.30
Peak level 95.2 %
Track quality 100.0 %
Copy CRC 5F65D91A
Track not present in AccurateRip database
Copy OK
Track 6
Filename C:\Users\K Scott Handley\Desktop\Muzik\+++ RIPS\Bill Dixon - 1982 - November 1981 (Soul Note, 1982 - remaster 2010)\06 - Penthesilea.wav
Pre-gap length 0:00:03.69
Peak level 95.2 %
Track quality 100.0 %
Copy CRC 805A9403
Track not present in AccurateRip database
Copy OK
Track 7
Filename C:\Users\K Scott Handley\Desktop\Muzik\+++ RIPS\Bill Dixon - 1982 - November 1981 (Soul Note, 1982 - remaster 2010)\07 - The Second Son.wav
Pre-gap length 0:00:02.89
Peak level 95.2 %
Track quality 100.0 %
Copy CRC EF44ECC6
Track not present in AccurateRip database
Copy OK
Track 8
Filename C:\Users\K Scott Handley\Desktop\Muzik\+++ RIPS\Bill Dixon - 1982 - November 1981 (Soul Note, 1982 - remaster 2010)\08 - The Sirens.wav
Pre-gap length 0:00:02.82
Peak level 95.2 %
Track quality 100.0 %
Copy CRC 706AA332
Track not present in AccurateRip database
Copy OK
Track 9
Filename C:\Users\K Scott Handley\Desktop\Muzik\+++ RIPS\Bill Dixon - 1982 - November 1981 (Soul Note, 1982 - remaster 2010)\09 - Another Quiet Feeling.wav
Pre-gap length 0:00:03.89
Peak level 91.6 %
Track quality 100.0 %
Copy CRC 5E8E4F09
Track not present in AccurateRip database
Copy OK
None of the tracks are present in the AccurateRip database
No errors occurred
End of status report
 
CD4
Exact Audio Copy V0.99 prebeta 5 from 4. May 2009
EAC extraction logfile from 29. December 2010, 1:18
Bill Dixon / Thoughts (Soul Note, 1987 - remaster 2010)
Used drive : TSSTcorpDVD+-RW TS-T633A Adapter: 1 ID: 0
Read mode : Secure
Utilize accurate stream : Yes
Defeat audio cache : Yes
Make use of C2 pointers : No
Read offset correction : 6
Overread into Lead-In and Lead-Out : No
Fill up missing offset samples with silence : Yes
Delete leading and trailing silent blocks : No
Null samples used in CRC calculations : Yes
Used interface : Installed external ASPI interface
Gap handling : Appended to previous track
Used output format : User Defined Encoder
Selected bitrate : 640 kBit/s
Quality : High
Add ID3 tag : Yes
Command line compressor : C:\Program Files (x86)\Exact Audio Copy\Flac\flac.exe
Additional command line options : -6 -V -T "ARTIST=%a" -T "TITLE=%t" -T "ALBUM=%g" -T "DATE=%y" -T "TRACKNUMBER=%n" -T "GENRE=%m" -T "COMMENT=%e" %s -o %d
TOC of the extracted CD
Track | Start | Length | Start sector | End sector
---------------------------------------------------------
1 | 0:00.00 | 13:21.64 | 0 | 60138
2 | 13:21.64 | 4:40.66 | 60139 | 81204
3 | 18:02.55 | 19:02.41 | 81205 | 166895
4 | 37:05.21 | 11:31.60 | 166896 | 218780
5 | 48:37.06 | 7:44.00 | 218781 | 253580
6 | 56:21.06 | 7:51.43 | 253581 | 288948
Track 1
Filename C:\Users\K Scott Handley\Desktop\Muzik\+++ RIPS\Bill Dixon - 1987 - Thoughts (Soul Note, 1987 - remaster 2010)\01 - Thoughts.wav
Pre-gap length 0:00:02.00
Peak level 95.2 %
Track quality 100.0 %
Copy CRC 52351142
Track not present in AccurateRip database
Copy OK
Track 2
Filename C:\Users\K Scott Handley\Desktop\Muzik\+++ RIPS\Bill Dixon - 1987 - Thoughts (Soul Note, 1987 - remaster 2010)\02 - Windows.wav
Pre-gap length 0:00:03.49
Peak level 68.4 %
Track quality 100.0 %
Copy CRC 4DAD0DD4
Track not present in AccurateRip database
Copy OK
Track 3
Filename C:\Users\K Scott Handley\Desktop\Muzik\+++ RIPS\Bill Dixon - 1987 - Thoughts (Soul Note, 1987 - remaster 2010)\03 - for Nelson and Winnie.wav
Peak level 95.2 %
Track quality 100.0 %
Copy CRC 9FF53881
Track not present in AccurateRip database
Copy OK
Track 4
Filename C:\Users\K Scott Handley\Desktop\Muzik\+++ RIPS\Bill Dixon - 1987 - Thoughts (Soul Note, 1987 - remaster 2010)\04 - A Song for Claudia's Children.wav
Pre-gap length 0:00:03.14
Peak level 95.2 %
Track quality 100.0 %
Copy CRC 446E983F
Track not present in AccurateRip database
Copy OK
Track 5
Filename C:\Users\K Scott Handley\Desktop\Muzik\+++ RIPS\Bill Dixon - 1987 - Thoughts (Soul Note, 1987 - remaster 2010)\05 - Brothers.wav
Pre-gap length 0:00:06.80
Peak level 68.2 %
Track quality 100.0 %
Copy CRC C5A54F9F
Track not present in AccurateRip database
Copy OK
Track 6
Filename C:\Users\K Scott Handley\Desktop\Muzik\+++ RIPS\Bill Dixon - 1987 - Thoughts (Soul Note, 1987 - remaster 2010)\06 - Points.wav
Pre-gap length 0:00:02.25
Peak level 95.2 %
Track quality 100.0 %
Copy CRC D9BC90A3
Track not present in AccurateRip database
Copy OK
None of the tracks are present in the AccurateRip database
No errors occurred
End of status report
 
CD5
Exact Audio Copy V0.99 prebeta 5 from 4. May 2009
EAC extraction logfile from 29. December 2010, 4:14
Bill Dixon / Son of Sisyphus (Soul Note, 1990 - remaster 2010)
Used drive : TSSTcorpDVD+-RW TS-T633A Adapter: 1 ID: 0
Read mode : Secure
Utilize accurate stream : Yes
Defeat audio cache : Yes
Make use of C2 pointers : No
Read offset correction : 6
Overread into Lead-In and Lead-Out : No
Fill up missing offset samples with silence : Yes
Delete leading and trailing silent blocks : No
Null samples used in CRC calculations : Yes
Used interface : Installed external ASPI interface
Gap handling : Appended to previous track
Used output format : User Defined Encoder
Selected bitrate : 640 kBit/s
Quality : High
Add ID3 tag : Yes
Command line compressor : C:\Program Files (x86)\Exact Audio Copy\Flac\flac.exe
Additional command line options : -6 -V -T "ARTIST=%a" -T "TITLE=%t" -T "ALBUM=%g" -T "DATE=%y" -T "TRACKNUMBER=%n" -T "GENRE=%m" -T "COMMENT=%e" %s -o %d
TOC of the extracted CD
Track | Start | Length | Start sector | End sector
---------------------------------------------------------
1 | 0:00.00 | 2:20.01 | 0 | 10500
2 | 2:20.01 | 1:58.24 | 10501 | 19374
3 | 4:18.25 | 7:23.34 | 19375 | 52633
4 | 11:41.59 | 3:11.57 | 52634 | 67015
5 | 14:53.41 | 5:25.05 | 67016 | 91395
6 | 20:18.46 | 3:52.00 | 91396 | 108795
7 | 24:10.46 | 3:00.12 | 108796 | 122307
8 | 27:10.58 | 4:30.25 | 122308 | 142582
9 | 31:41.08 | 7:40.62 | 142583 | 177144
Track 1
Filename C:\Users\K Scott Handley\Desktop\Muzik\+++ RIPS\Bill Dixon - 1990 - Son of Sisyphus (Soul Note, 1990 - remaster 2010)\01 - Silences for Jack Moore.wav
Pre-gap length 0:00:02.00
Peak level 95.2 %
Track quality 100.0 %
Copy CRC 65ACBFF3
Track not present in AccurateRip database
Copy OK
Track 2
Filename C:\Users\K Scott Handley\Desktop\Muzik\+++ RIPS\Bill Dixon - 1990 - Son of Sisyphus (Soul Note, 1990 - remaster 2010)\02 - Vector.wav
Pre-gap length 0:00:01.94
Peak level 95.2 %
Track quality 100.0 %
Copy CRC FA9130C3
Track not present in AccurateRip database
Copy OK
Track 3
Filename C:\Users\K Scott Handley\Desktop\Muzik\+++ RIPS\Bill Dixon - 1990 - Son of Sisyphus (Soul Note, 1990 - remaster 2010)\03 - Son of Sisyphus.wav
Pre-gap length 0:00:02.01
Peak level 95.2 %
Track quality 100.0 %
Copy CRC 1C03A977
Track not present in AccurateRip database
Copy OK
Track 4
Filename C:\Users\K Scott Handley\Desktop\Muzik\+++ RIPS\Bill Dixon - 1990 - Son of Sisyphus (Soul Note, 1990 - remaster 2010)\04 - Schema VI-88.wav
Pre-gap length 0:00:01.82
Peak level 95.2 %
Track quality 100.0 %
Copy CRC 1BFE59B1
Track not present in AccurateRip database
Copy OK
Track 5
Filename C:\Users\K Scott Handley\Desktop\Muzik\+++ RIPS\Bill Dixon - 1990 - Son of Sisyphus (Soul Note, 1990 - remaster 2010)\05 - Fusama Codex.wav
Pre-gap length 0:00:01.88
Peak level 95.2 %
Track quality 99.9 %
Copy CRC 3A84F878
Track not present in AccurateRip database
Copy OK
Track 6
Filename C:\Users\K Scott Handley\Desktop\Muzik\+++ RIPS\Bill Dixon - 1990 - Son of Sisyphus (Soul Note, 1990 - remaster 2010)\06 - Mandala Per Mendela.wav
Pre-gap length 0:00:00.17
Peak level 95.2 %
Track quality 100.0 %
Copy CRC DAE0C070
Track not present in AccurateRip database
Copy OK
Track 7
Filename C:\Users\K Scott Handley\Desktop\Muzik\+++ RIPS\Bill Dixon - 1990 - Son of Sisyphus (Soul Note, 1990 - remaster 2010)\07 - Sumi-E.wav
Pre-gap length 0:00:01.01
Peak level 95.2 %
Track quality 100.0 %
Copy CRC CAF4B54E
Track not present in AccurateRip database
Copy OK
Track 8
Filename C:\Users\K Scott Handley\Desktop\Muzik\+++ RIPS\Bill Dixon - 1990 - Son of Sisyphus (Soul Note, 1990 - remaster 2010)\08 - Negoro Codex.wav
Pre-gap length 0:00:01.94
Peak level 95.2 %
Track quality 100.0 %
Copy CRC 437097E8
Track not present in AccurateRip database
Copy OK
Track 9
Filename C:\Users\K Scott Handley\Desktop\Muzik\+++ RIPS\Bill Dixon - 1990 - Son of Sisyphus (Soul Note, 1990 - remaster 2010)\09 - Molti Molti Anna Fa.wav
Pre-gap length 0:00:01.66
Peak level 95.2 %
Track quality 100.0 %
Copy CRC 1853F092
Track not present in AccurateRip database
Copy OK
None of the tracks are present in the AccurateRip database
No errors occurred
End of status report
 
CD6
Exact Audio Copy V0.99 prebeta 5 from 4. May 2009
EAC extraction logfile from 29. December 2010, 4:58
Bill Dixon / Vade Mecum (Soul Note, 1994 - remaster 2010)
Used drive : TSSTcorpDVD+-RW TS-T633A Adapter: 1 ID: 0
Read mode : Secure
Utilize accurate stream : Yes
Defeat audio cache : Yes
Make use of C2 pointers : No
Read offset correction : 6
Overread into Lead-In and Lead-Out : No
Fill up missing offset samples with silence : Yes
Delete leading and trailing silent blocks : No
Null samples used in CRC calculations : Yes
Used interface : Installed external ASPI interface
Gap handling : Appended to previous track
Used output format : User Defined Encoder
Selected bitrate : 640 kBit/s
Quality : High
Add ID3 tag : Yes
Command line compressor : C:\Program Files (x86)\Exact Audio Copy\Flac\flac.exe
Additional command line options : -6 -V -T "ARTIST=%a" -T "TITLE=%t" -T "ALBUM=%g" -T "DATE=%y" -T "TRACKNUMBER=%n" -T "GENRE=%m" -T "COMMENT=%e" %s -o %d
TOC of the extracted CD
Track | Start | Length | Start sector | End sector
---------------------------------------------------------
1 | 0:00.00 | 4:24.22 | 0 | 19821
2 | 4:24.22 | 12:24.53 | 19822 | 75674
3 | 16:49.00 | 9:20.62 | 75675 | 117736
4 | 26:09.62 | 9:04.48 | 117737 | 158584
5 | 35:14.35 | 15:50.52 | 158585 | 229886
6 | 51:05.12 | 13:12.34 | 229887 | 289320
7 | 64:17.46 | 13:22.30 | 289321 | 349500
Track 1
Filename C:\Users\K Scott Handley\Desktop\Muzik\+++ RIPS\Bill Dixon - 1994 - Vade Mecum (Soul Note, 1994 - remaster 2010)\01 - Moment.wav
Pre-gap length 0:00:02.00
Peak level 95.2 %
Track quality 100.0 %
Copy CRC CF5C74D2
Track not present in AccurateRip database
Copy OK
Track 2
Filename C:\Users\K Scott Handley\Desktop\Muzik\+++ RIPS\Bill Dixon - 1994 - Vade Mecum (Soul Note, 1994 - remaster 2010)\02 - Anamorphosis.wav
Pre-gap length 0:00:02.12
Peak level 95.2 %
Track quality 100.0 %
Copy CRC 2F4B51C1
Track not present in AccurateRip database
Copy OK
Track 3
Filename C:\Users\K Scott Handley\Desktop\Muzik\+++ RIPS\Bill Dixon - 1994 - Vade Mecum (Soul Note, 1994 - remaster 2010)\03 - Viole Nino Bixio 20.wav
Peak level 95.2 %
Track quality 99.9 %
Copy CRC 4279E4CE
Track not present in AccurateRip database
Copy OK
Track 4
Filename C:\Users\K Scott Handley\Desktop\Muzik\+++ RIPS\Bill Dixon - 1994 - Vade Mecum (Soul Note, 1994 - remaster 2010)\04 - Pellucity.wav
Pre-gap length 0:00:03.45
Peak level 95.2 %
Track quality 100.0 %
Copy CRC 192242C4
Track not present in AccurateRip database
Copy OK
Track 5
Filename C:\Users\K Scott Handley\Desktop\Muzik\+++ RIPS\Bill Dixon - 1994 - Vade Mecum (Soul Note, 1994 - remaster 2010)\05 - Vade Mecum.wav
Pre-gap length 0:00:03.18
Peak level 95.2 %
Track quality 99.9 %
Copy CRC 332B20BC
Track not present in AccurateRip database
Copy OK
Track 6
Filename C:\Users\K Scott Handley\Desktop\Muzik\+++ RIPS\Bill Dixon - 1994 - Vade Mecum (Soul Note, 1994 - remaster 2010)\06 - Twice Upon a Time.wav
Pre-gap length 0:00:00.98
Peak level 95.2 %
Track quality 100.0 %
Copy CRC DD34E127
Track not present in AccurateRip database
Copy OK
Track 7
Filename C:\Users\K Scott Handley\Desktop\Muzik\+++ RIPS\Bill Dixon - 1994 - Vade Mecum (Soul Note, 1994 - remaster 2010)\07 - Acanthus.wav
Pre-gap length 0:00:03.97
Peak level 95.2 %
Track quality 100.0 %
Copy CRC BBAB03B8
Track not present in AccurateRip database
Copy OK
None of the tracks are present in the AccurateRip database
No errors occurred
End of status report
 
CD7
Exact Audio Copy V0.99 prebeta 5 from 4. May 2009
EAC extraction logfile from 29. December 2010, 5:50
Bill Dixon / Vade Mecum II (Soul Note, 1996 - remaster 2010)
Used drive : TSSTcorpDVD+-RW TS-T633A Adapter: 1 ID: 0
Read mode : Secure
Utilize accurate stream : Yes
Defeat audio cache : Yes
Make use of C2 pointers : No
Read offset correction : 6
Overread into Lead-In and Lead-Out : No
Fill up missing offset samples with silence : Yes
Delete leading and trailing silent blocks : No
Null samples used in CRC calculations : Yes
Used interface : Installed external ASPI interface
Gap handling : Appended to previous track
Used output format : User Defined Encoder
Selected bitrate : 640 kBit/s
Quality : High
Add ID3 tag : Yes
Command line compressor : C:\Program Files (x86)\Exact Audio Copy\Flac\flac.exe
Additional command line options : -6 -V -T "ARTIST=%a" -T "TITLE=%t" -T "ALBUM=%g" -T "DATE=%y" -T "TRACKNUMBER=%n" -T "GENRE=%m" -T "COMMENT=%e" %s -o %d
TOC of the extracted CD
Track | Start | Length | Start sector | End sector
---------------------------------------------------------
1 | 0:00.00 | 3:05.50 | 0 | 13924
2 | 3:05.50 | 10:21.36 | 13925 | 60535
3 | 13:27.11 | 15:50.36 | 60536 | 131821
4 | 29:17.47 | 15:28.73 | 131822 | 201494
5 | 44:46.45 | 13:33.64 | 201495 | 262533
6 | 58:20.34 | 11:39.05 | 262534 | 314963
Track 1
Filename C:\Users\K Scott Handley\Desktop\Muzik\+++ RIPS\Bill Dixon - 1996 - Vade Mecum II (Soul Note, 1996 - remaster 2010)\01 - Valentina de sera.wav
Pre-gap length 0:00:02.00
Peak level 95.2 %
Track quality 100.0 %
Copy CRC AC527F48
Track not present in AccurateRip database
Copy OK
Track 2
Filename C:\Users\K Scott Handley\Desktop\Muzik\+++ RIPS\Bill Dixon - 1996 - Vade Mecum II (Soul Note, 1996 - remaster 2010)\02 - Tableau.wav
Pre-gap length 0:00:02.76
Peak level 95.2 %
Track quality 100.0 %
Copy CRC 8C4603E0
Track not present in AccurateRip database
Copy OK
Track 3
Filename C:\Users\K Scott Handley\Desktop\Muzik\+++ RIPS\Bill Dixon - 1996 - Vade Mecum II (Soul Note, 1996 - remaster 2010)\03 - Ebonite.wav
Pre-gap length 0:00:02.93
Peak level 95.2 %
Track quality 100.0 %
Copy CRC F4D15011
Track not present in AccurateRip database
Copy OK
Track 4
Filename C:\Users\K Scott Handley\Desktop\Muzik\+++ RIPS\Bill Dixon - 1996 - Vade Mecum II (Soul Note, 1996 - remaster 2010)\04 - Reflections.wav
Pre-gap length 0:00:03.37
Peak level 95.2 %
Track quality 100.0 %
Copy CRC 994A7253
Track not present in AccurateRip database
Copy OK
Track 5
Filename C:\Users\K Scott Handley\Desktop\Muzik\+++ RIPS\Bill Dixon - 1996 - Vade Mecum II (Soul Note, 1996 - remaster 2010)\05 - Incunabula.wav
Pre-gap length 0:00:03.96
Peak level 95.2 %
Track quality 100.0 %
Copy CRC CEA67A98
Track not present in AccurateRip database
Copy OK
Track 6
Filename C:\Users\K Scott Handley\Desktop\Muzik\+++ RIPS\Bill Dixon - 1996 - Vade Mecum II (Soul Note, 1996 - remaster 2010)\06 - Octette #1.wav
Pre-gap length 0:00:03.68
Peak level 95.2 %
Track quality 100.0 %
Copy CRC 50853515
Track not present in AccurateRip database
Copy OK
None of the tracks are present in the AccurateRip database
No errors occurred
End of status report
 
CD8
Exact Audio Copy V0.99 prebeta 5 from 4. May 2009
EAC extraction logfile from 2. January 2011, 0:14
Bill Dixon / Papyrus Volume 1 (Soul Note, 2000 - remaster 2010)
Used drive : TSSTcorpDVD+-RW TS-T633A Adapter: 1 ID: 0
Read mode : Secure
Utilize accurate stream : Yes
Defeat audio cache : Yes
Make use of C2 pointers : No
Read offset correction : 6
Overread into Lead-In and Lead-Out : No
Fill up missing offset samples with silence : Yes
Delete leading and trailing silent blocks : No
Null samples used in CRC calculations : Yes
Used interface : Installed external ASPI interface
Gap handling : Appended to previous track
Used output format : User Defined Encoder
Selected bitrate : 640 kBit/s
Quality : High
Add ID3 tag : Yes
Command line compressor : C:\Program Files (x86)\Exact Audio Copy\Flac\flac.exe
Additional command line options : -6 -V -T "ARTIST=%a" -T "TITLE=%t" -T "ALBUM=%g" -T "DATE=%y" -T "TRACKNUMBER=%n" -T "GENRE=%m" -T "COMMENT=%e" %s -o %d
TOC of the extracted CD
Track | Start | Length | Start sector | End sector
---------------------------------------------------------
1 | 0:00.00 | 4:04.21 | 0 | 18320
2 | 4:04.21 | 7:33.50 | 18321 | 52345
3 | 11:37.71 | 9:11.38 | 52346 | 93708
4 | 20:49.34 | 3:46.37 | 93709 | 110695
5 | 24:35.71 | 3:17.66 | 110696 | 125536
6 | 27:53.62 | 2:32.14 | 125537 | 136950
7 | 30:26.01 | 8:15.21 | 136951 | 174096
8 | 38:41.22 | 2:36.59 | 174097 | 185855
9 | 41:18.06 | 12:19.58 | 185856 | 241338
10 | 53:37.64 | 6:39.69 | 241339 | 271332
11 | 60:17.58 | 6:54.26 | 271333 | 302408
12 | 67:12.09 | 1:33.42 | 302409 | 309425
Track 1
Filename C:\Users\K Scott Handley\Desktop\Muzik\+++ RIPS\Bill Dixon - 2000 - Papyrus Volume 1 (Soul Note, 2000 - remaster 2010)\01 - Essay Di Larry Neal.wav
Pre-gap length 0:00:02.00
Peak level 95.2 %
Track quality 100.0 %
Copy CRC FF4E528E
Track not present in AccurateRip database
Copy OK
Track 2
Filename C:\Users\K Scott Handley\Desktop\Muzik\+++ RIPS\Bill Dixon - 2000 - Papyrus Volume 1 (Soul Note, 2000 - remaster 2010)\02 - Papyrus.wav
Pre-gap length 0:00:03.54
Peak level 95.2 %
Track quality 100.0 %
Copy CRC CE44673E
Track not present in AccurateRip database
Copy OK
Track 3
Filename C:\Users\K Scott Handley\Desktop\Muzik\+++ RIPS\Bill Dixon - 2000 - Papyrus Volume 1 (Soul Note, 2000 - remaster 2010)\03 - The Statesman.wav
Pre-gap length 0:00:03.16
Peak level 95.2 %
Track quality 100.0 %
Copy CRC C2CAFFB5
Track not present in AccurateRip database
Copy OK
Track 4
Filename C:\Users\K Scott Handley\Desktop\Muzik\+++ RIPS\Bill Dixon - 2000 - Papyrus Volume 1 (Soul Note, 2000 - remaster 2010)\04 - Indirizzo Via Cimarosa Sei.wav
Pre-gap length 0:00:04.25
Peak level 95.2 %
Track quality 100.0 %
Copy CRC 5280F5B3
Track not present in AccurateRip database
Copy OK
Track 5
Filename C:\Users\K Scott Handley\Desktop\Muzik\+++ RIPS\Bill Dixon - 2000 - Papyrus Volume 1 (Soul Note, 2000 - remaster 2010)\05 - Scribbles.wav
Pre-gap length 0:00:03.77
Peak level 95.2 %
Track quality 99.9 %
Copy CRC BA16D4F0
Track not present in AccurateRip database
Copy OK
Track 6
Filename C:\Users\K Scott Handley\Desktop\Muzik\+++ RIPS\Bill Dixon - 2000 - Papyrus Volume 1 (Soul Note, 2000 - remaster 2010)\06 - Ritratto Di Allen Polite.wav
Pre-gap length 0:00:05.90
Peak level 95.2 %
Track quality 100.0 %
Copy CRC 08FA31E9
Track not present in AccurateRip database
Copy OK
Track 7
Filename C:\Users\K Scott Handley\Desktop\Muzik\+++ RIPS\Bill Dixon - 2000 - Papyrus Volume 1 (Soul Note, 2000 - remaster 2010)\07 - Cinnamon.wav
Pre-gap length 0:00:04.36
Peak level 95.2 %
Track quality 100.0 %
Copy CRC 57E5F4B4
Track not present in AccurateRip database
Copy OK
Track 8
Filename C:\Users\K Scott Handley\Desktop\Muzik\+++ RIPS\Bill Dixon - 2000 - Papyrus Volume 1 (Soul Note, 2000 - remaster 2010)\08 - Quadro De Henry Dumas.wav
Pre-gap length 0:00:05.24
Peak level 95.2 %
Track quality 100.0 %
Copy CRC 044228C1
Track not present in AccurateRip database
Copy OK
Track 9
Filename C:\Users\K Scott Handley\Desktop\Muzik\+++ RIPS\Bill Dixon - 2000 - Papyrus Volume 1 (Soul Note, 2000 - remaster 2010)\09 - Palimpsest.wav
Pre-gap length 0:00:04.33
Peak level 95.2 %
Track quality 100.0 %
Copy CRC 3668E102
Track not present in AccurateRip database
Copy OK
Track 10
Filename C:\Users\K Scott Handley\Desktop\Muzik\+++ RIPS\Bill Dixon - 2000 - Papyrus Volume 1 (Soul Note, 2000 - remaster 2010)\10 - Steps.wav
Pre-gap length 0:00:03.90
Peak level 95.2 %
Track quality 100.0 %
Copy CRC EA6FB82F
Track not present in AccurateRip database
Copy OK
Track 11
Filename C:\Users\K Scott Handley\Desktop\Muzik\+++ RIPS\Bill Dixon - 2000 - Papyrus Volume 1 (Soul Note, 2000 - remaster 2010)\11 - Sine Qua Non.wav
Pre-gap length 0:00:04.85
Peak level 95.2 %
Track quality 100.0 %
Copy CRC AA59EF3B
Track not present in AccurateRip database
Copy OK
Track 12
Filename C:\Users\K Scott Handley\Desktop\Muzik\+++ RIPS\Bill Dixon - 2000 - Papyrus Volume 1 (Soul Note, 2000 - remaster 2010)\12 - Quadro Di N.H. Pritchard.wav
Pre-gap length 0:00:05.21
Peak level 95.2 %
Track quality 100.0 %
Copy CRC 8F7CA37F
Track not present in AccurateRip database
Copy OK
None of the tracks are present in the AccurateRip database
No errors occurred
End of status report
 
CD9
Exact Audio Copy V0.99 prebeta 5 from 4. May 2009
EAC extraction logfile from 2. January 2011, 0:58
Bill Dixon / Papyrus Volume II (Soul Note, 2000 - remaster 2010)
Used drive : TSSTcorpDVD+-RW TS-T633A Adapter: 1 ID: 0
Read mode : Secure
Utilize accurate stream : Yes
Defeat audio cache : Yes
Make use of C2 pointers : No
Read offset correction : 6
Overread into Lead-In and Lead-Out : No
Fill up missing offset samples with silence : Yes
Delete leading and trailing silent blocks : No
Null samples used in CRC calculations : Yes
Used interface : Installed external ASPI interface
Gap handling : Appended to previous track
Used output format : User Defined Encoder
Selected bitrate : 640 kBit/s
Quality : High
Add ID3 tag : Yes
Command line compressor : C:\Program Files (x86)\Exact Audio Copy\Flac\flac.exe
Additional command line options : -6 -V -T "ARTIST=%a" -T "TITLE=%t" -T "ALBUM=%g" -T "DATE=%y" -T "TRACKNUMBER=%n" -T "GENRE=%m" -T "COMMENT=%e" %s -o %d
TOC of the extracted CD
Track | Start | Length | Start sector | End sector
---------------------------------------------------------
1 | 0:00.00 | 1:35.21 | 0 | 7145
2 | 1:35.21 | 12:13.12 | 7146 | 62132
3 | 13:48.33 | 4:33.49 | 62133 | 82656
4 | 18:22.07 | 7:07.38 | 82657 | 114719
5 | 25:29.45 | 8:19.35 | 114720 | 152179
6 | 33:49.05 | 6:53.73 | 152180 | 183227
7 | 40:43.03 | 5:20.70 | 183228 | 207297
8 | 46:03.73 | 10:23.28 | 207298 | 254050
9 | 56:27.26 | 13:14.16 | 254051 | 313616
10 | 69:41.42 | 3:00.22 | 313617 | 327138
Track 1
Filename C:\Users\K Scott Handley\Desktop\Muzik\+++ RIPS\Bill Dixon - 2000 - Papyrus Volume II (Soul Note, 2000 - remaster 2010)\01 - Silver Point - Jeanne Phillips.wav
Pre-gap length 0:00:02.00
Peak level 95.2 %
Track quality 99.8 %
Copy CRC FFF88E44
Track not present in AccurateRip database
Copy OK
Track 2
Filename C:\Users\K Scott Handley\Desktop\Muzik\+++ RIPS\Bill Dixon - 2000 - Papyrus Volume II (Soul Note, 2000 - remaster 2010)\02 - Papyrus.wav
Pre-gap length 0:00:04.96
Peak level 95.2 %
Track quality 99.9 %
Copy CRC BC0F082F
Track not present in AccurateRip database
Copy OK
Track 3
Filename C:\Users\K Scott Handley\Desktop\Muzik\+++ RIPS\Bill Dixon - 2000 - Papyrus Volume II (Soul Note, 2000 - remaster 2010)\03 - Pyxis.wav
Pre-gap length 0:00:04.06
Peak level 95.2 %
Track quality 100.0 %
Copy CRC 1443C22E
Track not present in AccurateRip database
Copy OK
Track 4
Filename C:\Users\K Scott Handley\Desktop\Muzik\+++ RIPS\Bill Dixon - 2000 - Papyrus Volume II (Soul Note, 2000 - remaster 2010)\04 - Squares.wav
Pre-gap length 0:00:04.02
Peak level 95.2 %
Track quality 100.0 %
Copy CRC 0A856F24
Track not present in AccurateRip database
Copy OK
Track 5
Filename C:\Users\K Scott Handley\Desktop\Muzik\+++ RIPS\Bill Dixon - 2000 - Papyrus Volume II (Soul Note, 2000 - remaster 2010)\05 - Epigraphy.wav
Pre-gap length 0:00:03.37
Peak level 95.2 %
Track quality 100.0 %
Copy CRC E52F3556
Track not present in AccurateRip database
Copy OK
Track 6
Filename C:\Users\K Scott Handley\Desktop\Muzik\+++ RIPS\Bill Dixon - 2000 - Papyrus Volume II (Soul Note, 2000 - remaster 2010)\06 - Sine Qua Non #2.wav
Pre-gap length 0:00:03.92
Peak level 95.2 %
Track quality 100.0 %
Copy CRC D7338CE1
Track not present in AccurateRip database
Copy OK
Track 7
Filename C:\Users\K Scott Handley\Desktop\Muzik\+++ RIPS\Bill Dixon - 2000 - Papyrus Volume II (Soul Note, 2000 - remaster 2010)\07 - Couplet.wav
Pre-gap length 0:00:03.89
Peak level 95.2 %
Track quality 100.0 %
Copy CRC 867680CB
Track not present in AccurateRip database
Copy OK
Track 8
Filename C:\Users\K Scott Handley\Desktop\Muzik\+++ RIPS\Bill Dixon - 2000 - Papyrus Volume II (Soul Note, 2000 - remaster 2010)\08 - Four - VI - 1998.wav
Pre-gap length 0:00:04.78
Peak level 95.2 %
Track quality 100.0 %
Copy CRC 7E303B98
Track not present in AccurateRip database
Copy OK
Track 9
Filename C:\Users\K Scott Handley\Desktop\Muzik\+++ RIPS\Bill Dixon - 2000 - Papyrus Volume II (Soul Note, 2000 - remaster 2010)\09 - Crawlspace.wav
Pre-gap length 0:00:04.16
Peak level 95.2 %
Track quality 100.0 %
Copy CRC 92DD0790
Track not present in AccurateRip database
Copy OK
Track 10
Filename C:\Users\K Scott Handley\Desktop\Muzik\+++ RIPS\Bill Dixon - 2000 - Papyrus Volume II (Soul Note, 2000 - remaster 2010)\10 - Suri-Mono- Louise Wade.wav
Pre-gap length 0:00:04.00
Peak level 95.2 %
Track quality 100.0 %
Copy CRC 4F04D23B
Track not present in AccurateRip database
Copy OK
None of the tracks are present in the AccurateRip database
No errors occurred
End of status report
 
Содержание индексных карт (.CUE)
 
CD1
REM DISCID 1C09C204
REM COMMENT "ExactAudioCopy v0.99pb5"
PERFORMER "Bill Dixon"
TITLE "Bill Dixon in Italy - Volume 1 (Black Saint, 1980 - 2010 remaster)"
FILE "Bill Dixon - - Bill Dixon in Italy - Volume 1 (Black Saint, 1980 - 2010 remaster)\201 - Summer Song - One - Morning.wav" WAVE
TRACK 01 AUDIO
TITLE "Summer Song - One - Morning"
PERFORMER "Bill Dixon"
FLAGS DCP
INDEX 01 00:00:00
FILE "Bill Dixon - - Bill Dixon in Italy - Volume 1 (Black Saint, 1980 - 2010 remaster)\202 - Firenze.wav" WAVE
TRACK 02 AUDIO
TITLE "Firenze"
PERFORMER "Bill Dixon"
FLAGS DCP
INDEX 01 00:00:00
FILE "Bill Dixon - - Bill Dixon in Italy - Volume 1 (Black Saint, 1980 - 2010 remaster)\203 - Summer Song - Two - Evening.wav" WAVE
TRACK 03 AUDIO
TITLE "Summer Song - Two - Evening"
PERFORMER "Bill Dixon"
FLAGS DCP
INDEX 01 00:00:00
FILE "Bill Dixon - - Bill Dixon in Italy - Volume 1 (Black Saint, 1980 - 2010 remaster)\204 - For Cecil Taylor.wav" WAVE
TRACK 04 AUDIO
TITLE "For Cecil Taylor"
PERFORMER "Bill Dixon"
FLAGS DCP
INDEX 01 00:00:00
 
CD2
REM GENRE Jazz
REM DATE 1981
REM DISCID 3209BB05
REM COMMENT "ExactAudioCopy v0.99pb5"
PERFORMER "Bill Dixon"
TITLE "Bill Dixon in Italy - Volume Two (Soul Note, 1981 - remaster 2010)"
FILE "Bill Dixon - 1981 - Bill Dixon in Italy - Volume Two (Soul Note, 1981 - remaster 2010)\01 - Sketch - Firenze.wav" WAVE
TRACK 01 AUDIO
TITLE "Sketch - Firenze"
PERFORMER "Bill Dixon"
FLAGS DCP
INDEX 01 00:00:00
TRACK 02 AUDIO
TITLE "Summer Song - Two - Evening"
PERFORMER "Bill Dixon"
FLAGS DCP
INDEX 00 14:54:67
FILE "Bill Dixon - 1981 - Bill Dixon in Italy - Volume Two (Soul Note, 1981 - remaster 2010)\02 - Summer Song - Two - Evening.wav" WAVE
INDEX 01 00:00:00
TRACK 03 AUDIO
TITLE "Summer Song - Three - Aurorea - Daybreak"
PERFORMER "Bill Dixon"
FLAGS DCP
INDEX 00 07:30:62
FILE "Bill Dixon - 1981 - Bill Dixon in Italy - Volume Two (Soul Note, 1981 - remaster 2010)\03 - Summer Song - Three - Aurorea - Daybreak.wav" WAVE
INDEX 01 00:00:00
TRACK 04 AUDIO
TITLE "Summer Song - Three - Aurorea - Dusk"
PERFORMER "Bill Dixon"
FLAGS DCP
INDEX 00 03:20:38
FILE "Bill Dixon - 1981 - Bill Dixon in Italy - Volume Two (Soul Note, 1981 - remaster 2010)\04 - Summer Song - Three - Aurorea - Dusk.wav" WAVE
INDEX 01 00:00:00
TRACK 05 AUDIO
TITLE "Dance Piece"
PERFORMER "Bill Dixon"
FLAGS DCP
INDEX 00 02:38:23
FILE "Bill Dixon - 1981 - Bill Dixon in Italy - Volume Two (Soul Note, 1981 - remaster 2010)\05 - Dance Piece.wav" WAVE
INDEX 01 00:00:00
 
CD3
REM GENRE Jazz
REM DATE 1982
REM DISCID 78129309
REM COMMENT "ExactAudioCopy v0.99pb5"
PERFORMER "Bill Dixon"
TITLE "November 1981 (Soul Note, 1982 - remaster 2010)"
FILE "Bill Dixon - 1982 - November 1981 (Soul Note, 1982 - remaster 2010)\01 - Webern.wav" WAVE
TRACK 01 AUDIO
TITLE "Webern"
PERFORMER "Bill Dixon"
FLAGS DCP
INDEX 01 00:00:00
TRACK 02 AUDIO
TITLE "Windswept Winterset"
PERFORMER "Bill Dixon"
FLAGS DCP
INDEX 00 01:24:07
FILE "Bill Dixon - 1982 - November 1981 (Soul Note, 1982 - remaster 2010)\02 - Windswept Winterset.wav" WAVE
INDEX 01 00:00:00
TRACK 03 AUDIO
TITLE "Velvet"
PERFORMER "Bill Dixon"
FLAGS DCP
INDEX 00 15:22:54
FILE "Bill Dixon - 1982 - November 1981 (Soul Note, 1982 - remaster 2010)\03 - Velvet.wav" WAVE
INDEX 01 00:00:00
TRACK 04 AUDIO
TITLE "Llaattiinnoo Suite"
PERFORMER "Bill Dixon"
FLAGS DCP
INDEX 00 06:45:46
FILE "Bill Dixon - 1982 - November 1981 (Soul Note, 1982 - remaster 2010)\04 - Llaattiinnoo Suite.wav" WAVE
INDEX 01 00:00:00
TRACK 05 AUDIO
TITLE "November 1981"
PERFORMER "Bill Dixon"
FLAGS DCP
INDEX 00 15:24:51
FILE "Bill Dixon - 1982 - November 1981 (Soul Note, 1982 - remaster 2010)\05 - November 1981.wav" WAVE
INDEX 01 00:00:00
TRACK 06 AUDIO
TITLE "Penthesilea"
PERFORMER "Bill Dixon"
FLAGS DCP
INDEX 00 10:40:41
FILE "Bill Dixon - 1982 - November 1981 (Soul Note, 1982 - remaster 2010)\06 - Penthesilea.wav" WAVE
INDEX 01 00:00:00
TRACK 07 AUDIO
TITLE "The Second Son"
PERFORMER "Bill Dixon"
FLAGS DCP
INDEX 00 10:11:12
FILE "Bill Dixon - 1982 - November 1981 (Soul Note, 1982 - remaster 2010)\07 - The Second Son.wav" WAVE
INDEX 01 00:00:00
TRACK 08 AUDIO
TITLE "The Sirens"
PERFORMER "Bill Dixon"
FLAGS DCP
INDEX 00 05:10:63
FILE "Bill Dixon - 1982 - November 1981 (Soul Note, 1982 - remaster 2010)\08 - The Sirens.wav" WAVE
INDEX 01 00:00:00
TRACK 09 AUDIO
TITLE "Another Quiet Feeling"
PERFORMER "Bill Dixon"
FLAGS DCP
INDEX 00 07:05:27
FILE "Bill Dixon - 1982 - November 1981 (Soul Note, 1982 - remaster 2010)\09 - Another Quiet Feeling.wav" WAVE
INDEX 01 00:00:00
 
CD4
REM GENRE Jazz
REM DATE 1987
REM DISCID 4D0F0C06
REM COMMENT "ExactAudioCopy v0.99pb5"
PERFORMER "Bill Dixon"
TITLE "Thoughts (Soul Note, 1987 - remaster 2010)"
FILE "Bill Dixon - 1987 - Thoughts (Soul Note, 1987 - remaster 2010)\01 - Thoughts.wav" WAVE
TRACK 01 AUDIO
TITLE "Thoughts"
PERFORMER "Bill Dixon"
FLAGS DCP
INDEX 01 00:00:00
TRACK 02 AUDIO
TITLE "Windows"
PERFORMER "Bill Dixon"
FLAGS DCP
INDEX 00 13:18:27
FILE "Bill Dixon - 1987 - Thoughts (Soul Note, 1987 - remaster 2010)\02 - Windows.wav" WAVE
INDEX 01 00:00:00
FILE "Bill Dixon - 1987 - Thoughts (Soul Note, 1987 - remaster 2010)\03 - for Nelson and Winnie.wav" WAVE
TRACK 03 AUDIO
TITLE "for Nelson and Winnie"
PERFORMER "Bill Dixon"
FLAGS DCP
INDEX 01 00:00:00
TRACK 04 AUDIO
TITLE "A Song for Claudia's Children"
PERFORMER "Bill Dixon"
FLAGS DCP
INDEX 00 18:59:30
FILE "Bill Dixon - 1987 - Thoughts (Soul Note, 1987 - remaster 2010)\04 - A Song for Claudia's Children.wav" WAVE
INDEX 01 00:00:00
TRACK 05 AUDIO
TITLE "Brothers"
PERFORMER "Bill Dixon"
FLAGS DCP
INDEX 00 11:25:00
FILE "Bill Dixon - 1987 - Thoughts (Soul Note, 1987 - remaster 2010)\05 - Brothers.wav" WAVE
INDEX 01 00:00:00
TRACK 06 AUDIO
TITLE "Points"
PERFORMER "Bill Dixon"
FLAGS DCP
INDEX 00 07:41:56
FILE "Bill Dixon - 1987 - Thoughts (Soul Note, 1987 - remaster 2010)\06 - Points.wav" WAVE
INDEX 01 00:00:00
 
CD5
REM GENRE Jazz
REM DATE 1990
REM DISCID 5B093909
REM COMMENT "ExactAudioCopy v0.99pb5"
PERFORMER "Bill Dixon"
TITLE "Son of Sisyphus (Soul Note, 1990 - remaster 2010)"
FILE "Bill Dixon - 1990 - Son of Sisyphus (Soul Note, 1990 - remaster 2010)\01 - Silences for Jack Moore.wav" WAVE
TRACK 01 AUDIO
TITLE "Silences for Jack Moore"
PERFORMER "Bill Dixon"
FLAGS DCP
INDEX 01 00:00:00
TRACK 02 AUDIO
TITLE "Vector"
PERFORMER "Bill Dixon"
FLAGS DCP
INDEX 00 02:18:05
FILE "Bill Dixon - 1990 - Son of Sisyphus (Soul Note, 1990 - remaster 2010)\02 - Vector.wav" WAVE
INDEX 01 00:00:00
TRACK 03 AUDIO
TITLE "Son of Sisyphus"
PERFORMER "Bill Dixon"
FLAGS DCP
INDEX 00 01:56:23
FILE "Bill Dixon - 1990 - Son of Sisyphus (Soul Note, 1990 - remaster 2010)\03 - Son of Sisyphus.wav" WAVE
INDEX 01 00:00:00
TRACK 04 AUDIO
TITLE "Schema VI-88"
PERFORMER "Bill Dixon"
FLAGS DCP
INDEX 00 07:21:47
FILE "Bill Dixon - 1990 - Son of Sisyphus (Soul Note, 1990 - remaster 2010)\04 - Schema VI-88.wav" WAVE
INDEX 01 00:00:00
TRACK 05 AUDIO
TITLE "Fusama Codex"
PERFORMER "Bill Dixon"
FLAGS DCP
INDEX 00 03:09:66
FILE "Bill Dixon - 1990 - Son of Sisyphus (Soul Note, 1990 - remaster 2010)\05 - Fusama Codex.wav" WAVE
INDEX 01 00:00:00
TRACK 06 AUDIO
TITLE "Mandala Per Mendela"
PERFORMER "Bill Dixon"
FLAGS DCP
INDEX 00 05:24:67
FILE "Bill Dixon - 1990 - Son of Sisyphus (Soul Note, 1990 - remaster 2010)\06 - Mandala Per Mendela.wav" WAVE
INDEX 01 00:00:00
TRACK 07 AUDIO
TITLE "Sumi-E"
PERFORMER "Bill Dixon"
FLAGS DCP
INDEX 00 03:50:74
FILE "Bill Dixon - 1990 - Son of Sisyphus (Soul Note, 1990 - remaster 2010)\07 - Sumi-E.wav" WAVE
INDEX 01 00:00:00
TRACK 08 AUDIO
TITLE "Negoro Codex"
PERFORMER "Bill Dixon"
FLAGS DCP
INDEX 00 02:58:16
FILE "Bill Dixon - 1990 - Son of Sisyphus (Soul Note, 1990 - remaster 2010)\08 - Negoro Codex.wav" WAVE
INDEX 01 00:00:00
TRACK 09 AUDIO
TITLE "Molti Molti Anna Fa"
PERFORMER "Bill Dixon"
FLAGS DCP
INDEX 00 04:28:50
FILE "Bill Dixon - 1990 - Son of Sisyphus (Soul Note, 1990 - remaster 2010)\09 - Molti Molti Anna Fa.wav" WAVE
INDEX 01 00:00:00
 
CD6
REM GENRE Jazz
REM DATE 1994
REM DISCID 54123407
REM COMMENT "ExactAudioCopy v0.99pb5"
PERFORMER "Bill Dixon"
TITLE "Vade Mecum (Soul Note, 1994 - remaster 2010)"
FILE "Bill Dixon - 1994 - Vade Mecum (Soul Note, 1994 - remaster 2010)\01 - Moment.wav" WAVE
TRACK 01 AUDIO
TITLE "Moment"
PERFORMER "Bill Dixon"
FLAGS DCP
INDEX 01 00:00:00
TRACK 02 AUDIO
TITLE "Anamorphosis"
PERFORMER "Bill Dixon"
FLAGS DCP
INDEX 00 04:22:13
FILE "Bill Dixon - 1994 - Vade Mecum (Soul Note, 1994 - remaster 2010)\02 - Anamorphosis.wav" WAVE
INDEX 01 00:00:00
FILE "Bill Dixon - 1994 - Vade Mecum (Soul Note, 1994 - remaster 2010)\03 - Viole Nino Bixio 20.wav" WAVE
TRACK 03 AUDIO
TITLE "Viole Nino Bixio 20"
PERFORMER "Bill Dixon"
FLAGS DCP
INDEX 01 00:00:00
TRACK 04 AUDIO
TITLE "Pellucity"
PERFORMER "Bill Dixon"
FLAGS DCP
INDEX 00 09:17:28
FILE "Bill Dixon - 1994 - Vade Mecum (Soul Note, 1994 - remaster 2010)\04 - Pellucity.wav" WAVE
INDEX 01 00:00:00
TRACK 05 AUDIO
TITLE "Vade Mecum"
PERFORMER "Bill Dixon"
FLAGS DCP
INDEX 00 09:01:34
FILE "Bill Dixon - 1994 - Vade Mecum (Soul Note, 1994 - remaster 2010)\05 - Vade Mecum.wav" WAVE
INDEX 01 00:00:00
TRACK 06 AUDIO
TITLE "Twice Upon a Time"
PERFORMER "Bill Dixon"
FLAGS DCP
INDEX 00 15:49:53
FILE "Bill Dixon - 1994 - Vade Mecum (Soul Note, 1994 - remaster 2010)\06 - Twice Upon a Time.wav" WAVE
INDEX 01 00:00:00
TRACK 07 AUDIO
TITLE "Acanthus"
PERFORMER "Bill Dixon"
FLAGS DCP
INDEX 00 13:08:36
FILE "Bill Dixon - 1994 - Vade Mecum (Soul Note, 1994 - remaster 2010)\07 - Acanthus.wav" WAVE
INDEX 01 00:00:00
 
CD7
REM GENRE Jazz
REM DATE 1996
REM DISCID 5B106706
REM COMMENT "ExactAudioCopy v0.99pb5"
PERFORMER "Bill Dixon"
TITLE "Vade Mecum II (Soul Note, 1996 - remaster 2010)"
FILE "Bill Dixon - 1996 - Vade Mecum II (Soul Note, 1996 - remaster 2010)\01 - Valentina de sera.wav" WAVE
TRACK 01 AUDIO
TITLE "Valentina de sera"
PERFORMER "Bill Dixon"
FLAGS DCP
INDEX 01 00:00:00
TRACK 02 AUDIO
TITLE "Tableau"
PERFORMER "Bill Dixon"
FLAGS DCP
INDEX 00 03:02:68
FILE "Bill Dixon - 1996 - Vade Mecum II (Soul Note, 1996 - remaster 2010)\02 - Tableau.wav" WAVE
INDEX 01 00:00:00
TRACK 03 AUDIO
TITLE "Ebonite"
PERFORMER "Bill Dixon"
FLAGS DCP
INDEX 00 10:18:41
FILE "Bill Dixon - 1996 - Vade Mecum II (Soul Note, 1996 - remaster 2010)\03 - Ebonite.wav" WAVE
INDEX 01 00:00:00
TRACK 04 AUDIO
TITLE "Reflections"
PERFORMER "Bill Dixon"
FLAGS DCP
INDEX 00 15:47:08
FILE "Bill Dixon - 1996 - Vade Mecum II (Soul Note, 1996 - remaster 2010)\04 - Reflections.wav" WAVE
INDEX 01 00:00:00
TRACK 05 AUDIO
TITLE "Incunabula"
PERFORMER "Bill Dixon"
FLAGS DCP
INDEX 00 15:25:01
FILE "Bill Dixon - 1996 - Vade Mecum II (Soul Note, 1996 - remaster 2010)\05 - Incunabula.wav" WAVE
INDEX 01 00:00:00
TRACK 06 AUDIO
TITLE "Octette #1"
PERFORMER "Bill Dixon"
FLAGS DCP
INDEX 00 13:30:13
FILE "Bill Dixon - 1996 - Vade Mecum II (Soul Note, 1996 - remaster 2010)\06 - Octette #1.wav" WAVE
INDEX 01 00:00:00
 
CD8
REM GENRE Jazz
REM DATE 2000
REM DISCID AD101D0C
REM COMMENT "ExactAudioCopy v0.99pb5"
PERFORMER "Bill Dixon"
TITLE "Papyrus Volume 1 (Soul Note, 2000 - remaster 2010)"
FILE "Bill Dixon - 2000 - Papyrus Volume 1 (Soul Note, 2000 - remaster 2010)\01 - Essay Di Larry Neal.wav" WAVE
TRACK 01 AUDIO
TITLE "Essay Di Larry Neal"
PERFORMER "Bill Dixon"
FLAGS DCP
INDEX 01 00:00:00
TRACK 02 AUDIO
TITLE "Papyrus"
PERFORMER "Bill Dixon"
FLAGS DCP
INDEX 00 04:00:55
FILE "Bill Dixon - 2000 - Papyrus Volume 1 (Soul Note, 2000 - remaster 2010)\02 - Papyrus.wav" WAVE
INDEX 01 00:00:00
TRACK 03 AUDIO
TITLE "The Statesman"
PERFORMER "Bill Dixon"
FLAGS DCP
INDEX 00 07:30:38
FILE "Bill Dixon - 2000 - Papyrus Volume 1 (Soul Note, 2000 - remaster 2010)\03 - The Statesman.wav" WAVE
INDEX 01 00:00:00
TRACK 04 AUDIO
TITLE "Indirizzo Via Cimarosa Sei"
PERFORMER "Bill Dixon"
FLAGS DCP
INDEX 00 09:07:19
FILE "Bill Dixon - 2000 - Papyrus Volume 1 (Soul Note, 2000 - remaster 2010)\04 - Indirizzo Via Cimarosa Sei.wav" WAVE
INDEX 01 00:00:00
TRACK 05 AUDIO
TITLE "Scribbles"
PERFORMER "Bill Dixon"
FLAGS DCP
INDEX 00 03:42:54
FILE "Bill Dixon - 2000 - Papyrus Volume 1 (Soul Note, 2000 - remaster 2010)\05 - Scribbles.wav" WAVE
INDEX 01 00:00:00
TRACK 06 AUDIO
TITLE "Ritratto Di Allen Polite"
PERFORMER "Bill Dixon"
FLAGS DCP
INDEX 00 03:11:73
FILE "Bill Dixon - 2000 - Papyrus Volume 1 (Soul Note, 2000 - remaster 2010)\06 - Ritratto Di Allen Polite.wav" WAVE
INDEX 01 00:00:00
TRACK 07 AUDIO
TITLE "Cinnamon"
PERFORMER "Bill Dixon"
FLAGS DCP
INDEX 00 02:27:62
FILE "Bill Dixon - 2000 - Papyrus Volume 1 (Soul Note, 2000 - remaster 2010)\07 - Cinnamon.wav" WAVE
INDEX 01 00:00:00
TRACK 08 AUDIO
TITLE "Quadro De Henry Dumas"
PERFORMER "Bill Dixon"
FLAGS DCP
INDEX 00 08:10:03
FILE "Bill Dixon - 2000 - Papyrus Volume 1 (Soul Note, 2000 - remaster 2010)\08 - Quadro De Henry Dumas.wav" WAVE
INDEX 01 00:00:00
TRACK 09 AUDIO
TITLE "Palimpsest"
PERFORMER "Bill Dixon"
FLAGS DCP
INDEX 00 02:32:34
FILE "Bill Dixon - 2000 - Papyrus Volume 1 (Soul Note, 2000 - remaster 2010)\09 - Palimpsest.wav" WAVE
INDEX 01 00:00:00
TRACK 10 AUDIO
TITLE "Steps"
PERFORMER "Bill Dixon"
FLAGS DCP
INDEX 00 12:15:65
FILE "Bill Dixon - 2000 - Papyrus Volume 1 (Soul Note, 2000 - remaster 2010)\10 - Steps.wav" WAVE
INDEX 01 00:00:00
TRACK 11 AUDIO
TITLE "Sine Qua
Any questions -> support@pro-jazz.com. По всем вопросам пишите -> support@pro-jazz.com
07:29
210
Нет комментариев. Ваш будет первым!