Вы используете незарегистрированную версию компонента "Вкладки"!

Поиск

(Avant-Garde Jazz, Free Jazz) Sonny Simmons - American Jungle - 1997, APE (image+.cue), lossless

(Avant-Garde Jazz, Free Jazz) Sonny Simmons - American Jungle - 1997, APE (image+.cue), lossless
Треклист:
Sonny Simmons - American Jungle
Жанр: Avant-Garde Jazz, Free Jazz
Страна-производитель диска: США
Год издания диска: 1997
Издатель (лейбл): Qwest/Warner Bros.
Номер по каталогу: 9 46543-2
Аудио кодек: APE (*.ape)
Тип рипа: image+.cue
Битрейт аудио: lossless
Продолжительность: 46:29
Источник (релизер): dreadbull (hqshare)
Наличие сканов в содержимом раздачи: да
Треклист:
01. Land of the Freaks (Simmons)
02. Black, Blue & Purple (For the Great Lord Alain) (Simmons)
03. Coltrane Story (Simmons)
04. My Favorite Things (Hammerstein-Rodgers)
05. American Jungle Theme (Simmons)
Состав:
Sonny Simmons - alto sax
Travis Shook - piano
Reggie Workman - bass
Cindy Blackman - drums
Recorded on December 22 & 23, 1995 at the Power Station, New York City.
 
Лог создания рипа
EAC extraction logfile from 18. November 2010, 12:51 for CD
Sonny Simmons / American Jungle
Used drive : PLEXTOR DVDR PX-750A Adapter: 0 ID: 1
Read mode : Secure with NO C2, accurate stream, disable cache
Read offset correction : 102
Overread into Lead-In and Lead-Out : No
Used output format : Internal WAV Routines
44.100 Hz; 16 Bit; Stereo
Other options :
Fill up missing offset samples with silence : Yes
Delete leading and trailing silent blocks : No
Installed external ASPI interface
Range status and errors
Selected range
Filename L:\emule temp\свежачок\ОТСЛУШАНО\1НОВОЕ\Sonny Simmons - American Jungle (1997, Qwest) [eac-ape-scans] byDrBull\CDImage.wav
Peak level 99.9 %
Range quality 99.9 %
CRC 3446C321
Copy OK
No errors occured
End of status report
 
Содержание индексной карты (.CUE)
CATALOG 0075994654324
PERFORMER "Sonny Simmons"
TITLE "American Jungle"
FILE "Sonny Simmons - American Jungle.wav" WAVE
TRACK 01 AUDIO
TITLE "Land of the Freaks"
PERFORMER "Sonny Simmons"
ISRC USQW19700001
INDEX 00 00:00:00
INDEX 01 00:00:32
TRACK 02 AUDIO
TITLE "Black, Blue & Purple"
PERFORMER "Sonny Simmons"
ISRC USQW19700002
INDEX 00 08:34:03
INDEX 01 08:34:05
TRACK 03 AUDIO
TITLE "Coltrane Story"
PERFORMER "Sonny Simmons"
ISRC USQW19700003
INDEX 00 20:54:10
INDEX 01 20:56:32
TRACK 04 AUDIO
TITLE "My Favorite Things"
PERFORMER "Sonny Simmons"
ISRC USQW19700004
INDEX 00 23:42:45
INDEX 01 23:44:52
TRACK 05 AUDIO
TITLE "American Jungle Theme"
PERFORMER "Sonny Simmons"
ISRC USQW19700005
INDEX 00 33:24:70
INDEX 01 33:24:72
 
Review by Scott Yanow
Altoist Sonny Simmons' second Warner Bros. release is not quite on the same level as his first. "Coltrane Story" and "My Favorite Things" are too close in style to John Coltrane (with pianist Travis Shook, bassist Reggie Workman and drummer Cindy Blackman closely emulating 'Trane's rhythm section), and even the other three numbers hint strongly at Coltrane. Simmons does play quite well throughout, and this set helped consolidate his unlikely - but well deserved - comeback.
По всем вопросам пишите личное сообщение пользователю M0p94ok.
07:30
185
Нет комментариев. Ваш будет первым!