Вы используете незарегистрированную версию компонента "Вкладки"!

Поиск

(Free Improvisation) ps.3 (Dorschner-Fuchs-Macht) - performance - 1998, FLAC (tracks+.cue) lossless

Треклист:
ps.3 (Dorschner-Fuchs-Macht) - performance
Жанр: Free Improvisation
Страна-производитель диска: Germany
Год издания диска: 1998
Издатель (лейбл): AMI Productions
Номер по каталогу: 00798
Страна: Germany
Аудио кодек: FLAC (*.flac)
Тип рипа: tracks+.cue
Битрейт аудио: lossless
Продолжительность: 55:23
Источник (релизер): собственный рип с оригинального диска.
Наличие сканов в содержимом раздачи: да
Треклист:
01. Suse solo (Komposit. f. Sousaphon)
02. Driving ride to the other side
03. Judgement rumour
04. Jolly drips
05. Dressing gown in the midday
06. Jowl
07. Considering
08. Asparagus eater
09. A little bit littler. (fin.)
 
Лог создания рипа
Exact Audio Copy V0.99 prebeta 5 from 4. May 2009
EAC extraction logfile from 9. January 2011, 3:01
ps.3 / performance (Vortrag)
Used drive : TSSTcorpCDDVDW SH-S222A Adapter: 1 ID: 0
Read mode : Secure
Utilize accurate stream : Yes
Defeat audio cache : Yes
Make use of C2 pointers : No
Read offset correction : 6
Overread into Lead-In and Lead-Out : No
Fill up missing offset samples with silence : Yes
Delete leading and trailing silent blocks : No
Null samples used in CRC calculations : Yes
Used interface : Installed external ASPI interface
Gap handling : Appended to previous track
Used output format : User Defined Encoder
Selected bitrate : 768 kBit/s
Quality : High
Add ID3 tag : No
Command line compressor : C:\Tool\Compress\FLAC\flac.exe
Additional command line options : -V -8 -T "ARTIST=%a" -T "TITLE=%t" -T "ALBUM=%g" -T "TRACKNUMBER=%n" -T "GENRE=%m" %s
TOC of the extracted CD
Track | Start | Length | Start sector | End sector
---------------------------------------------------------
1 | 0:00.00 | 8:02.66 | 0 | 36215
2 | 8:02.66 | 9:37.63 | 36216 | 79553
3 | 17:40.54 | 2:20.08 | 79554 | 90061
4 | 20:00.62 | 2:47.19 | 90062 | 102605
5 | 22:48.06 | 9:37.04 | 102606 | 145884
6 | 32:25.10 | 3:42.04 | 145885 | 162538
7 | 36:07.14 | 6:01.54 | 162539 | 189667
8 | 42:08.68 | 3:38.58 | 189668 | 206075
9 | 45:47.51 | 9:24.04 | 206076 | 248379
10 | 57:43.55 | 13:57.59 | 259780 | 322613
Track 1
Filename C:\! RUTRACKER\ru up\Dorschner & Fuchs & Macht - ps.3\01 - Suse solo (Komposit. f. Sousaphon).wav
Pre-gap length 0:00:02.00
Peak level 60.9 %
Track quality 100.0 %
Test CRC 169A9E8B
Copy CRC 169A9E8B
Track not present in AccurateRip database
Copy OK
Track 2
Filename C:\! RUTRACKER\ru up\Dorschner & Fuchs & Macht - ps.3\02 - Driving Ride To The Other Side.wav
Pre-gap length 0:00:06.00
Peak level 96.6 %
Track quality 100.0 %
Test CRC AEDFFB59
Copy CRC AEDFFB59
Track not present in AccurateRip database
Copy OK
Track 3
Filename C:\! RUTRACKER\ru up\Dorschner & Fuchs & Macht - ps.3\03 - Judgement Rumour.wav
Pre-gap length 0:00:04.00
Peak level 96.6 %
Track quality 99.9 %
Test CRC 1184A793
Copy CRC 1184A793
Track not present in AccurateRip database
Copy OK
Track 4
Filename C:\! RUTRACKER\ru up\Dorschner & Fuchs & Macht - ps.3\04 - Jolly Drips.wav
Pre-gap length 0:00:04.00
Peak level 33.2 %
Track quality 100.0 %
Test CRC 2CD1FF34
Copy CRC 2CD1FF34
Track not present in AccurateRip database
Copy OK
Track 5
Filename C:\! RUTRACKER\ru up\Dorschner & Fuchs & Macht - ps.3\05 - Dressing Gown In The Midday.wav
Pre-gap length 0:00:04.00
Peak level 71.9 %
Track quality 100.0 %
Test CRC 2A1D52E4
Copy CRC 2A1D52E4
Track not present in AccurateRip database
Copy OK
Track 6
Filename C:\! RUTRACKER\ru up\Dorschner & Fuchs & Macht - ps.3\06 - Jowl.wav
Pre-gap length 0:00:04.00
Peak level 55.9 %
Track quality 100.0 %
Test CRC CD5A04D0
Copy CRC CD5A04D0
Track not present in AccurateRip database
Copy OK
Track 7
Filename C:\! RUTRACKER\ru up\Dorschner & Fuchs & Macht - ps.3\07 - Considering.wav
Pre-gap length 0:00:04.00
Peak level 25.0 %
Track quality 100.0 %
Test CRC CA972C5B
Copy CRC CA972C5B
Track not present in AccurateRip database
Copy OK
Track 8
Filename C:\! RUTRACKER\ru up\Dorschner & Fuchs & Macht - ps.3\08 - Asparagus Eater.wav
Pre-gap length 0:00:04.00
Peak level 96.4 %
Track quality 100.0 %
Test CRC 31D56E05
Copy CRC 31D56E05
Track not present in AccurateRip database
Copy OK
Track 9
Filename C:\! RUTRACKER\ru up\Dorschner & Fuchs & Macht - ps.3\09 - A Little Bit Littler. (fin.).wav
Pre-gap length 0:00:04.00
Peak level 78.7 %
Track quality 100.0 %
Test CRC 2BD67C64
Copy CRC 2BD67C64
Track not present in AccurateRip database
Copy OK
None of the tracks are present in the AccurateRip database
No errors occurred
End of status report
 
Содержание индексной карты (.CUE)
REM GENRE Avantgarde
REM DATE 1998
REM DISCID 8410CD0A
REM COMMENT "ExactAudioCopy v0.99pb5"
PERFORMER "ps.3"
TITLE "performance (Vortrag)"
FILE "01 - Suse solo (Komposit. f. Sousaphon).wav" WAVE
TRACK 01 AUDIO
TITLE "Suse solo (Komposit. f. Sousaphon)"
PERFORMER "ps.3"
INDEX 01 00:00:00
TRACK 02 AUDIO
TITLE "Driving Ride To The Other Side"
PERFORMER "ps.3"
INDEX 00 07:56:66
FILE "02 - Driving Ride To The Other Side.wav" WAVE
INDEX 01 00:00:00
TRACK 03 AUDIO
TITLE "Judgement Rumour"
PERFORMER "ps.3"
INDEX 00 09:33:63
FILE "03 - Judgement Rumour.wav" WAVE
INDEX 01 00:00:00
TRACK 04 AUDIO
TITLE "Jolly Drips"
PERFORMER "ps.3"
INDEX 00 02:16:08
FILE "04 - Jolly Drips.wav" WAVE
INDEX 01 00:00:00
TRACK 05 AUDIO
TITLE "Dressing Gown In The Midday"
PERFORMER "ps.3"
INDEX 00 02:43:19
FILE "05 - Dressing Gown In The Midday.wav" WAVE
INDEX 01 00:00:00
TRACK 06 AUDIO
TITLE "Jowl"
PERFORMER "ps.3"
INDEX 00 09:33:04
FILE "06 - Jowl.wav" WAVE
INDEX 01 00:00:00
TRACK 07 AUDIO
TITLE "Considering"
PERFORMER "ps.3"
INDEX 00 03:38:04
FILE "07 - Considering.wav" WAVE
INDEX 01 00:00:00
TRACK 08 AUDIO
TITLE "Asparagus Eater"
PERFORMER "ps.3"
INDEX 00 05:57:54
FILE "08 - Asparagus Eater.wav" WAVE
INDEX 01 00:00:00
TRACK 09 AUDIO
TITLE "A Little Bit Littler. (fin.)"
PERFORMER "ps.3"
INDEX 00 03:34:58
FILE "09 - A Little Bit Littler. (fin.).wav" WAVE
INDEX 01 00:00:00
TRACK 10 MODEx/2xxx
TITLE "Data Track"
PERFORMER "ps.3"
INDEX 00 09:24:04
Доп. информация:
Hybrid-CD
System requirements for PC & MAC : QuickTime (http://www.apple.com/quicktime/download/)
Recorded March 1998, Dresden.
 
Об исполнителе (группе)
Hartmut Dorschner was born 1970 in Dresden. When he finished his vocational trainig as a stonemason he started studying composition and saxophone at the University for Music "Carl Maria von Weber" Dresden by Thomas Kupsch and also improvisation at the University for Music and Theater, Leipzig. Hartmut Dorschner lives and works in Dresden. He gots the 1. prize at the international 2. Leipziger Improvisation contest together with Andreas Nordheim and Mathias Macht (1998), scholarships of the Academy of Art Berlin at the Studio for electronic Music (2000) and at Künstlerhaus Schloss Wiepersdorf (2000) and the award of the town Dresden for Blaue Fabrik e.V. (2005).
Hartmut Dorschner is a well-known improvisationist and performance artist who worked with, among others, "XANYON" interactivess Environment Cyneart Dresden(2004) and received various composition commissions. For example, he gave music advice to the providers and performers of Composition Europe (2004). " My interests are in the transition period, the dynamic between the different forms and conditions", writes the experimental composer and prominent saxophonist about his numerous collaborations with musicians and other artists.
März 1998 Produktion der CD "ps.3", zusammen mit dem Bildenden Künstler Lutz Fleischer, den Musikern M. Macht und H. Fuchs
 
Об альбоме (сборнике)
 
Состав
Hartmut Dorschner - Sousaphon, Sopran- and Altsaxophon
Holger Fuchs - Altclarinet, Tenorsaxophon, Konzertina
Matthias Macht - Drums
По всем вопросам пишите личное сообщение пользователю M0p94ok.
07:29
194
Нет комментариев. Ваш будет первым!