Вы используете незарегистрированную версию компонента "Вкладки"!

Поиск

(Free Jazz, Free Improvisation) Ab Baars / Meinrad Kneer - Windfall - 2008, FLAC (image+.cue), lossless

(Free Jazz, Free Improvisation) Ab Baars / Meinrad Kneer - Windfall - 2008, FLAC (image+.cue), lossless
Треклист:
Baars, Kneer / Windfall
Жанр: Free Jazz, Free Improvisation
Страна-производитель диска: Netherlands
Год издания: 2008
Издатель (лейбл): Evil Rabbit Records
Номер по каталогу: ERR 10
Аудиокодек: FLAC (*.flac)
Тип рипа: image+.cue
Битрейт аудио: lossless
Продолжительность: 46:51
Источник (релизер): cd
Наличие сканов в содержимом раздачи: нет
Треклист:
1 the staircase incident (4:19)
2 ant logics (2:45)
3 windfall (1:53)
4 wood-wind (4:55)
5 long way home (4:30)
6 bird talk (5:01)
7 insinuated instability (3:54)
8 the pledge (6:41)
9 eastern rudiment (3:13)
10 into philosophy (4:05)
11 target practice (4:50)
 
Лог создания рипа
Exact Audio Copy V1.0 beta 2 from 29. April 2011
EAC extraction logfile from 21. November 2013, 16:45
Baars, Kneer / Windfall
Used drive : Optiarc DVD RW AD-7170A Adapter: 0 ID: 0
Read mode : Secure
Utilize accurate stream : Yes
Defeat audio cache : Yes
Make use of C2 pointers : No
Read offset correction : 48
Overread into Lead-In and Lead-Out : No
Fill up missing offset samples with silence : Yes
Delete leading and trailing silent blocks : No
Null samples used in CRC calculations : Yes
Used interface : Native Win32 interface for Win NT & 2000
Used output format : User Defined Encoder
Selected bitrate : 320 kBit/s
Quality : High
Add ID3 tag : No
Command line compressor : C:\Program Files\Exact Audio Copy\Flac\flac.exe
Additional command line options : -V -8 -T "Date=%year%" -T "Genre=%genre%" %source%
TOC of the extracted CD
Track | Start | Length | Start sector | End sector
---------------------------------------------------------
1 | 0:00.00 | 4:22.45 | 0 | 19694
2 | 4:22.45 | 2:48.36 | 19695 | 32330
3 | 7:11.06 | 1:59.41 | 32331 | 41296
4 | 9:10.47 | 4:58.02 | 41297 | 63648
5 | 14:08.49 | 4:36.03 | 63649 | 84351
6 | 18:44.52 | 5:04.51 | 84352 | 107202
7 | 23:49.28 | 3:59.25 | 107203 | 125152
8 | 27:48.53 | 6:44.60 | 125153 | 155512
9 | 34:33.38 | 3:18.62 | 155513 | 170424
10 | 37:52.25 | 4:08.28 | 170425 | 189052
11 | 42:00.53 | 4:50.36 | 189053 | 210838
Range status and errors
Selected range
Filename K:\ЕАС\Baars, Kneer - Windfall.wav
Peak level 100.0 %
Extraction speed 1.8 X
Range quality 99.9 %
Test CRC ECD48999
Copy CRC ECD48999
Copy OK
No errors occurred
AccurateRip summary
Track 1 not present in database
Track 2 not present in database
Track 3 not present in database
Track 4 not present in database
Track 5 not present in database
Track 6 not present in database
Track 7 not present in database
Track 8 not present in database
Track 9 not present in database
Track 10 not present in database
Track 11 not present in database
None of the tracks are present in the AccurateRip database
End of status report
==== Log checksum E98BAC42433B408D74AD46BB06F675D9AEBB4195958381F0E17BE56876C29B33 ====
 
Содержание индексной карты (.CUE)
REM GENRE Jazz
REM DATE 2008
REM DISCID 7A0AFB0B
REM COMMENT "ExactAudioCopy v1.0b2"
PERFORMER "Baars, Kneer"
TITLE "Windfall"
FILE "Baars, Kneer - Windfall.flac" WAVE
TRACK 01 AUDIO
TITLE "the staircase incident"
PERFORMER "Baars, Kneer"
ISRC NLHM20901001
INDEX 01 00:00:00
TRACK 02 AUDIO
TITLE "ant logics"
PERFORMER "Baars, Kneer"
ISRC NLHM20901002
INDEX 00 04:19:15
INDEX 01 04:22:45
TRACK 03 AUDIO
TITLE "windfall"
PERFORMER "Baars, Kneer"
ISRC NLHM20901003
INDEX 00 07:07:29
INDEX 01 07:11:06
TRACK 04 AUDIO
TITLE "wood-wind"
PERFORMER "Baars, Kneer"
ISRC NLHM20901004
INDEX 00 09:03:60
INDEX 01 09:10:47
TRACK 05 AUDIO
TITLE "long way home"
PERFORMER "Baars, Kneer"
ISRC NLHM20901005
INDEX 00 14:05:50
INDEX 01 14:08:49
TRACK 06 AUDIO
TITLE "bird talk"
PERFORMER "Baars, Kneer"
ISRC NLHM20901006
INDEX 00 18:39:02
INDEX 01 18:44:52
TRACK 07 AUDIO
TITLE "insinuated instability"
PERFORMER "Baars, Kneer"
ISRC NLHM20901007
INDEX 00 23:45:62
INDEX 01 23:49:28
TRACK 08 AUDIO
TITLE "the pledge"
PERFORMER "Baars, Kneer"
ISRC NLHM20901008
INDEX 00 27:43:60
INDEX 01 27:48:53
TRACK 09 AUDIO
TITLE "eastern rudiment"
PERFORMER "Baars, Kneer"
ISRC NLHM20901009
INDEX 00 34:29:64
INDEX 01 34:33:38
TRACK 10 AUDIO
TITLE "into philosophy"
PERFORMER "Baars, Kneer"
ISRC NLHM20901010
INDEX 00 37:46:73
INDEX 01 37:52:25
TRACK 11 AUDIO
TITLE "target practice"
PERFORMER "Baars, Kneer"
ISRC NLHM20901011
INDEX 00 41:56:71
INDEX 01 42:00:53
Доп. информация: recorded by albert van veenendaal, january 24 and december 1, 2008
at bethanienklooster, amsterdam
 
Состав
Ab Baars - tenor saxophone, clarinet, shakuhachi, noh-kan
Meinrad Kneer - double bass
По всем вопросам пишите личное сообщение пользователю M0p94ok.
20:44
119
Нет комментариев. Ваш будет первым!