Вы используете незарегистрированную версию компонента "Вкладки"!

Поиск

(Avant-Garde, Contemporary Jazz, Altri Suoni) Grand Reportage Ensemble Deluxe & Lucien Dubuis - Live from the Surface of the Sun - 2010, FLAC (tracks+.cue), lossless

(Avant-Garde, Contemporary Jazz, Altri Suoni) Grand Reportage Ensemble Deluxe & Lucien Dubuis - Live from the Surface of the Sun - 2010, FLAC (tracks+.cue), lossless
Треклист:
Grand Reportage Ensemble Deluxe & Lucien Dubuis / Live from the Surface of the Sun
Жанр: Avant-Garde, Contemporary Jazz, Altri Suoni
Страна-производитель диска: Switzerland
Год издания: 2010
Издатель (лейбл): Altri Suoni
Номер по каталогу: AS 306
Аудиокодек: FLAC (*.flac)
Тип рипа: tracks+.cue
Битрейт аудио: lossless
Продолжительность: 44:58
Источник (релизер): я
Наличие сканов в содержимом раздачи: да
Треклист:
01. À moteur 4:04
02. Incident à voile 3:09
03. Ode au grain 3:09
04. Bogota Boogie 3:09
05. Le Vent de l’affaire 3:22
06. Bon / Mauvais Escient 0:45
07. Les Os / Los huesos 4:16
08. Senti le stencil 4:06
09. Kif kif bourricot 0:58
10. S’asseoir dessus 5:44
11. Incident à vapeur 12:16
Compositions de Jérôme Correa. Arrangements Grand Reportage Ensemble Deluxe & Lucien Dubuis.
Enregistré au café du Soleil, Saignelégier, Franches-Montagnes (Suisse), 22-25 septembre 2010.
Lucien Dubuis – clarinette contrebasse et basse (4, 7, 8)
Jérôme Correa – saxophone baryton, ténor (4, 7, 11) et alto (8)
Olivier Nussbaum – basse et contrebasse (6, 11)
Vincent Boillat – batterie
 
Лог создания рипа
Exact Audio Copy V1.0 beta 3 from 29. August 2011
EAC extraction logfile from 22. November 2013, 15:51
Grand Reportage Ensemble Deluxe & Lucien Dubuis / Live from the Surface of the Sun
Used drive : SlimtypeeNAU508 5 Adapter: 1 ID: 0
Read mode : Secure
Utilize accurate stream : Yes
Defeat audio cache : Yes
Make use of C2 pointers : No
Read offset correction : 6
Overread into Lead-In and Lead-Out : No
Fill up missing offset samples with silence : Yes
Delete leading and trailing silent blocks : No
Null samples used in CRC calculations : Yes
Used interface : Native Win32 interface for Win NT & 2000
Gap handling : Appended to previous track
Used output format : User Defined Encoder
Selected bitrate : 768 kBit/s
Quality : High
Add ID3 tag : No
Command line compressor : C:\Program Files (x86)\Exact Audio Copy\Flac\flac.exe
Additional command line options : -8 -V -T "ARTIST=%artist%" -T "TITLE=%title%" -T "ALBUM=%albumtitle%" -T "DATE=%year%" -T "TRACKNUMBER=%tracknr%" -T "GENRE=%genre%" -T "PERFORMER=%albuminterpret%" -T "COMPOSER=%composer%" %haslyrics%--tag-from-file=LYRICS="%lyricsfile%"%haslyrics% -T "ALBUMARTIST=%albumartist%" -T "DISCNUMBER=%cdnumber%" -T "TOTALDISCS=%totalcds%" -T "TOTALTRACKS=%numtracks%" -T "COMMENT=%comment%" %source% -o %dest%
TOC of the extracted CD
Track | Start | Length | Start sector | End sector
---------------------------------------------------------
1 | 0:00.00 | 4:03.48 | 0 | 18272
2 | 4:03.48 | 3:09.25 | 18273 | 32472
3 | 7:12.73 | 3:09.29 | 32473 | 46676
4 | 10:22.27 | 3:09.10 | 46677 | 60861
5 | 13:31.37 | 3:21.55 | 60862 | 75991
6 | 16:53.17 | 0:44.42 | 75992 | 79333
7 | 17:37.59 | 4:16.16 | 79334 | 98549
8 | 21:54.00 | 4:05.39 | 98550 | 116963
9 | 25:59.39 | 0:58.25 | 116964 | 121338
10 | 26:57.64 | 5:44.16 | 121339 | 147154
11 | 32:42.05 | 12:16.00 | 147155 | 202354
Track 1
Filename C:\EAC rips\01 - À moteur.wav
Pre-gap length 0:00:02.00
Peak level 100.0 %
Extraction speed 2.2 X
Track quality 100.0 %
Test CRC 8ED29FC0
Copy CRC 8ED29FC0
Track not present in AccurateRip database
Copy OK
Track 2
Filename C:\EAC rips\02 - Incident à voile.wav
Pre-gap length 0:00:02.45
Peak level 100.0 %
Extraction speed 2.3 X
Track quality 100.0 %
Test CRC B0E75886
Copy CRC B0E75886
Track not present in AccurateRip database
Copy OK
Track 3
Filename C:\EAC rips\03 - Ode au grain.wav
Pre-gap length 0:00:01.33
Peak level 100.0 %
Extraction speed 2.5 X
Track quality 100.0 %
Test CRC B36D4247
Copy CRC B36D4247
Track not present in AccurateRip database
Copy OK
Track 4
Filename C:\EAC rips\04 - Bogota Boogie.wav
Pre-gap length 0:00:01.74
Peak level 100.0 %
Extraction speed 2.6 X
Track quality 100.0 %
Test CRC FBE36849
Copy CRC FBE36849
Track not present in AccurateRip database
Copy OK
Track 5
Filename C:\EAC rips\05 - Le Vent de l'affaire.wav
Pre-gap length 0:00:01.74
Peak level 100.0 %
Extraction speed 2.8 X
Track quality 100.0 %
Test CRC 985DEA18
Copy CRC 985DEA18
Track not present in AccurateRip database
Copy OK
Track 6
Filename C:\EAC rips\06 - Bon - Mauvais Escient.wav
Pre-gap length 0:00:01.74
Peak level 100.0 %
Extraction speed 1.9 X
Track quality 100.0 %
Test CRC 893C199D
Copy CRC 893C199D
Track not present in AccurateRip database
Copy OK
Track 7
Filename C:\EAC rips\07 - Les Os - Los huesos.wav
Pre-gap length 0:00:01.74
Peak level 100.0 %
Extraction speed 3.1 X
Track quality 100.0 %
Test CRC F6A2AD09
Copy CRC F6A2AD09
Track not present in AccurateRip database
Copy OK
Track 8
Filename C:\EAC rips\08 - Senti le stencil.wav
Pre-gap length 0:00:01.74
Peak level 100.0 %
Extraction speed 3.3 X
Track quality 100.0 %
Test CRC E835C5B2
Copy CRC E835C5B2
Track not present in AccurateRip database
Copy OK
Track 9
Filename C:\EAC rips\09 - Kif kif bourricot.wav
Pre-gap length 0:00:01.74
Peak level 100.0 %
Extraction speed 2.3 X
Track quality 100.0 %
Test CRC FAC4A43D
Copy CRC FAC4A43D
Track not present in AccurateRip database
Copy OK
Track 10
Filename C:\EAC rips\10 - S'asseoir dessus.wav
Pre-gap length 0:00:01.74
Peak level 100.0 %
Extraction speed 3.6 X
Track quality 100.0 %
Test CRC F730004B
Copy CRC F730004B
Track not present in AccurateRip database
Copy OK
Track 11
Filename C:\EAC rips\11 - Incident à vapeur....wav
Pre-gap length 0:00:01.74
Peak level 100.0 %
Extraction speed 4.2 X
Track quality 100.0 %
Test CRC 381EDC13
Copy CRC 381EDC13
Track not present in AccurateRip database
Copy OK
None of the tracks are present in the AccurateRip database
No errors occurred
End of status report
---- CUETools DB Plugin V2.1.4
[CTDB TOCID: wTOWqBnGPYfnmrZ1mPG_hAgZGHA-] disk not present in database
Submit result: wTOWqBnGPYfnmrZ1mPG_hAgZGHA- has been uploaded
==== Log checksum F8BF8069D8BCE09AB302323D64DC598C1A22115B256A8A27BE1A9C35D87D3F6A ====
 
Содержание индексной карты (.CUE)
REM GENRE Jazz
REM DATE 2010
REM DISCID 830A8A0B
REM COMMENT "ExactAudioCopy v1.0b3"
PERFORMER "Grand Reportage Ensemble Deluxe & Lucien Dubuis"
TITLE "Live from the Surface of the Sun"
FILE "01 - À moteur.wav" WAVE
TRACK 01 AUDIO
TITLE "À moteur"
PERFORMER "Grand Reportage Ensemble Deluxe & Lucien Dubuis"
ISRC CH1881130601
INDEX 01 00:00:00
TRACK 02 AUDIO
TITLE "Incident à voile"
PERFORMER "Grand Reportage Ensemble Deluxe & Lucien Dubuis"
ISRC CH1881130602
INDEX 00 04:01:03
FILE "02 - Incident à voile.wav" WAVE
INDEX 01 00:00:00
TRACK 03 AUDIO
TITLE "Ode au grain"
PERFORMER "Grand Reportage Ensemble Deluxe & Lucien Dubuis"
ISRC CH1881130603
INDEX 00 03:07:67
FILE "03 - Ode au grain.wav" WAVE
INDEX 01 00:00:00
TRACK 04 AUDIO
TITLE "Bogota Boogie"
PERFORMER "Grand Reportage Ensemble Deluxe & Lucien Dubuis"
ISRC CH1881130604
INDEX 00 03:07:30
FILE "04 - Bogota Boogie.wav" WAVE
INDEX 01 00:00:00
TRACK 05 AUDIO
TITLE "Le Vent de l'affaire"
PERFORMER "Grand Reportage Ensemble Deluxe & Lucien Dubuis"
ISRC CH1881130605
INDEX 00 03:07:11
FILE "05 - Le Vent de l'affaire.wav" WAVE
INDEX 01 00:00:00
TRACK 06 AUDIO
TITLE "Bon - Mauvais Escient"
PERFORMER "Grand Reportage Ensemble Deluxe & Lucien Dubuis"
ISRC CH1881130606
INDEX 00 03:19:56
FILE "06 - Bon - Mauvais Escient.wav" WAVE
INDEX 01 00:00:00
TRACK 07 AUDIO
TITLE "Les Os - Los huesos"
PERFORMER "Grand Reportage Ensemble Deluxe & Lucien Dubuis"
ISRC CH1881130607
INDEX 00 00:42:43
FILE "07 - Les Os - Los huesos.wav" WAVE
INDEX 01 00:00:00
TRACK 08 AUDIO
TITLE "Senti le stencil"
PERFORMER "Grand Reportage Ensemble Deluxe & Lucien Dubuis"
ISRC CH1881130608
INDEX 00 04:14:17
FILE "08 - Senti le stencil.wav" WAVE
INDEX 01 00:00:00
TRACK 09 AUDIO
TITLE "Kif kif bourricot"
PERFORMER "Grand Reportage Ensemble Deluxe & Lucien Dubuis"
ISRC CH1881130609
INDEX 00 04:03:40
FILE "09 - Kif kif bourricot.wav" WAVE
INDEX 01 00:00:00
TRACK 10 AUDIO
TITLE "S'asseoir dessus"
PERFORMER "Grand Reportage Ensemble Deluxe & Lucien Dubuis"
ISRC CH1881130610
INDEX 00 00:56:26
FILE "10 - S'asseoir dessus.wav" WAVE
INDEX 01 00:00:00
TRACK 11 AUDIO
TITLE "Incident à vapeur..."
PERFORMER "Grand Reportage Ensemble Deluxe & Lucien Dubuis"
ISRC CH1881130611
INDEX 00 05:42:17
FILE "11 - Incident à vapeur....wav" WAVE
INDEX 01 00:00:00
По всем вопросам пишите личное сообщение пользователю M0p94ok.
20:44
153
Нет комментариев. Ваш будет первым!