Вы используете незарегистрированную версию компонента "Вкладки"!

Поиск

(Free Jazz, Big Band) The NOW Orchestra (w/ George Lewis, Vinny Golia, Peggy Lee, Dylan Van Der Schyff) - WOWOW - 1999, FLAC (tracks+.cue), lossless

(Free Jazz, Big Band) The NOW Orchestra (w/ George Lewis, Vinny Golia, Peggy Lee, Dylan Van Der Schyff) - WOWOW - 1999, FLAC (tracks+.cue), lossless
Треклист:
The NOW Orchestra / WOWOW
Жанр: Free Jazz, Big Band
Страна-производитель диска: Canada
Год издания: 1999
Издатель (лейбл): Spool
Номер по каталогу: LINE 7/SPL107
Страна: Canada
Аудиокодек: FLAC (*.flac)
Тип рипа: tracks+.cue
Битрейт аудио: lossless
Продолжительность: 73:41
Источник (релизер): свой фирменный диск
Наличие сканов в содержимом раздачи:
Треклист:
1. WOWOW 26:10
2. The Yellow Sound 23:22
3. The Tyranny Of Interest 24:04
 
Лог создания рипа
Exact Audio Copy V1.0 beta 3 from 29. August 2011
EAC extraction logfile from 15. November 2013, 21:34
The NOW Orchestra / WOWOW
Used drive : PIONEER DVD-RW DVR-115D Adapter: 0 ID: 0
Read mode : Secure
Utilize accurate stream : Yes
Defeat audio cache : Yes
Make use of C2 pointers : No
Read offset correction : 48
Overread into Lead-In and Lead-Out : No
Fill up missing offset samples with silence : Yes
Delete leading and trailing silent blocks : No
Null samples used in CRC calculations : Yes
Used interface : Installed external ASPI interface
Gap handling : Appended to previous track
Used output format : User Defined Encoder
Selected bitrate : 896 kBit/s
Quality : High
Add ID3 tag : No
Command line compressor : C:\Program Files\Exact Audio Copy\FLAC\FLAC.EXE
Additional command line options : -6 -V -T "ARTIST=%artist%" -T "TITLE=%title%" -T "ALBUM=%albumtitle%" -T "DATE=%year%" -T "TRACKNUMBER=%tracknr%" -T "GENRE=%genre%" -T "COMMENT=%comment%" -T "BAND=%albuminterpret%" -T "COMPOSER=%composer%" %haslyrics%--tag-from-file=LYRICS="%lyricsfile%"%haslyrics% -T "DISCNUMBER=%cdnumber%" -T "TOTALDISCS=%totalcds%" -T "TOTALTRACKS=%numtracks%" %hascover%--picture="%coverfile%"%hascover% %source% -o %dest%
TOC of the extracted CD
Track | Start | Length | Start sector | End sector
---------------------------------------------------------
1 | 0:00.00 | 26:12.27 | 0 | 117926
2 | 26:12.27 | 23:24.48 | 117927 | 223274
3 | 49:37.00 | 24:04.24 | 223275 | 331598
Track 1
Filename D:\zzz\01 - WOWOW.wav
Pre-gap length 0:00:02.00
Peak level 99.4 %
Extraction speed 6.3 X
Track quality 99.9 %
Test CRC 2BAEDFB5
Copy CRC 2BAEDFB5
Accurately ripped (confidence 1) [A0CF6E2B] (AR v2)
Copy OK
Track 2
Filename D:\zzz\02 - The Yellow Sound.wav
Pre-gap length 0:00:02.00
Peak level 99.3 %
Extraction speed 8.4 X
Track quality 100.0 %
Test CRC 8E57C9A0
Copy CRC 8E57C9A0
Accurately ripped (confidence 1) [4AC34008] (AR v2)
Copy OK
Track 3
Filename D:\zzz\03 - The Tyranny Of Interest.wav
Pre-gap length 0:00:02.00
Peak level 99.4 %
Extraction speed 9.8 X
Track quality 100.0 %
Test CRC 99440E9C
Copy CRC 99440E9C
Accurately ripped (confidence 1) [BE4D234E] (AR v2)
Copy OK
All tracks accurately ripped
No errors occurred
End of status report
==== Log checksum 27B9E3BD8F4F7EF5AF58BAA9D237D528EBF4B2694F40A820FE51C4EA7BB2B9D5 ====
 
Содержание индексной карты (.CUE)
REM GENRE "Big Band"
REM DATE 1999
REM DISCID 2E114503
REM COMMENT "ExactAudioCopy v1.0b3"
PERFORMER "The NOW Orchestra"
TITLE "WOWOW"
FILE "01 - WOWOW.wav" WAVE
TRACK 01 AUDIO
TITLE "WOWOW"
PERFORMER "The NOW Orchestra"
INDEX 01 00:00:00
TRACK 02 AUDIO
TITLE "The Yellow Sound"
PERFORMER "The NOW Orchestra"
INDEX 00 26:10:27
FILE "02 - The Yellow Sound.wav" WAVE
INDEX 01 00:00:00
TRACK 03 AUDIO
TITLE "The Tyranny Of Interest"
PERFORMER "The NOW Orchestra"
INDEX 00 23:22:48
FILE "03 - The Tyranny Of Interest.wav" WAVE
INDEX 01 00:00:00
 
Лог проверки качества
d:\>d:\aucdtect -d/-m0 d:\zzz\*.wav
auCDtect: CD records authenticity detector, version 0.8.2
Copyright (c) 2004 Oleg Berngardt. All rights reserved.
Copyright (c) 2004 Alexander Djourik. All rights reserved.
------------------------------------------------------------
Processing file: [01. WOWOW.wav]
------------------------------------------------------------
This track looks like CDDA with probability 100%
------------------------------------------------------------
Processing file: [02. The Yellow Sound.wav]
------------------------------------------------------------
This track looks like CDDA with probability 100%
------------------------------------------------------------
Processing file: [03. The Tyranny Of Interest.wav]
------------------------------------------------------------
This track looks like CDDA with probability 100%
------------------------------------------------------------
Final Conclusion:
------------------------------------------------------------
These tracks looks like CDDA with probability 100%
Доп. информация:
 
Album Info & AMG Review
(Coat Cooke) - 1
(Ron Samworth) - 2
(Paul Cram) - 3
Recorded live at The Roundhouse, Vancouver, B.C., November 14 & 15, 1997
Recording engineer: Andy Bowmer
Assistant recording engineer: Sandra Schultz
Mixed at Vogville, Port Coquitlam, BC Canada
Mixed by Shawn Pierce for Maximum Music Ltd.
Mastered by Paul Shatto
Digital editing: Shawn Pierce and Paul Shatto
Producers: Coat Cooke and Ron Samworth
Executive producer: New Orchestra Workshop Society
Cover design: Hanif Jan Mohamed
Photographs: Chris Cameron
WOWOW was recorded live on November 14 and 15, 1997, as the New Orchestra Workshop (or NOW Orchestra) was celebrating its 20th anniversary with a concert series in hometown Vancouver, Canada. Three new works were created for the occasion, all of them featured (in part) on this CD.
The music is typical NOW: a big hard-bopping stage band sound with a rocking rhythm section (including guitar (electric)). The three works showcased here are built in contrasting sections, exploiting the orchestra's ability to run at 200 m.p.h. and stop on a dime. Thoroughly composed passages (usually a solid beat with hot staccato licks) are followed by free improvisation sections where everything seems to fall apart, only to pick up later on, stronger than ever. Guests George Lewis (trombone), Vinny Golia (clarinets/saxes/flutes) and Paul Cram (clarinet/tenor sax) add power to the NOW's already strong line-up (including pianist Paul Plimley and the four members of the quartet Talking Pictures). A female vocalist is used in all three works, although more distinctly in "WOWOW," where she howls the line "Suicide by side".
WOWOW is an entertaining record and a very good example of what the NOW Orchestra is capable of. Two weaker points are the under-use of Ron Samworth, a great guitar player almost unheard on this disc, and the presence of crude edits. It seems the goal was to fit all three new works on the album, but it has been achieved at the cost of editing, most evident on "WOWOW" when the piece fades out on a newly-installed groove.
 
Состав
The NOW Orchestra
under the direction of: Coat Cooke & Ron Samworth
with special guests: George Lewis (trombone), Vinny Golia (clarinets, flutes, saxophones), Paul Cram (clarinet, tenor saxophone)
Coat Cooke: tenor, alto, baritone saxophones, flute
Ron Samworth: guitar
Paul Plimley: piano
Kate Hammett-Vaughan: voice
Graham Ord: tenor, alto, soprano saxes, flute, piccolo
Saul Berson: alto saxophone
Mark Nodwell: soprano saxophone
Ralph Eppel: trombone
Rod Murray: trombone
Brad Muirhead: bass trombone & tuba
John Korsrud: trumpet/flugelhorn
Bill Clark: trumpet/flugelhorn
Peggy Lee: cello
Paul Blaney: bass
Clyde Reed: bass
Dylan Van Der Schyff: drums
По всем вопросам пишите личное сообщение пользователю M0p94ok.
20:45
143
Нет комментариев. Ваш будет первым!