Вы используете незарегистрированную версию компонента "Вкладки"!

Поиск

(Free Jazz, Contemporary Jazz, Free Improvisation) Waclaw Zimpel Quartet - Stone Fog - 2013, FLAC (tracks+.cue), lossless

(Free Jazz, Contemporary Jazz, Free Improvisation) Waclaw Zimpel Quartet - Stone Fog - 2013, FLAC (tracks+.cue), lossless
Треклист:
Wacław Zimpel Quartet / Stone Fog
Жанр: Free Jazz, Contemporary Jazz, Free Improvisation
Страна-производитель диска: Poland
Год издания: 2013
Издатель (лейбл): For-Tune
Номер по каталогу: 009
Аудиокодек: FLAC (*.flac)
Тип рипа: tracks+.cue
Битрейт аудио: lossless
Продолжительность: 62:40
Источник (релизер): kivius
Наличие сканов в содержимом раздачи: нет
Треклист:
1. Cold Blue Sky
2. Old Feet Feel Out The Path
3. A Sudden Shift Missed
4. As The Moon Dips In Nettles
5, Hundred Of Wings Steel The Sun
6. River Willows Sway
7. One Side Of My Face Is Colder Than The Other
8. Stone Fog
 
Лог создания рипа
Exact Audio Copy V1.0 beta 3 from 29. August 2011
EAC extraction logfile from 16. November 2013, 17:49
Wacław Zimpel Quartet / Stone Fog
Used drive : TSSTcorpCDDVDW SE-208DB Adapter: 2 ID: 0
Read mode : Secure
Utilize accurate stream : Yes
Defeat audio cache : Yes
Make use of C2 pointers : No
Read offset correction : 6
Overread into Lead-In and Lead-Out : No
Fill up missing offset samples with silence : Yes
Delete leading and trailing silent blocks : No
Null samples used in CRC calculations : Yes
Used interface : Native Win32 interface for Win NT & 2000
Gap handling : Appended to previous track
Used output format : User Defined Encoder
Selected bitrate : 1024 kBit/s
Quality : High
Add ID3 tag : No
Command line compressor : C:\Program Files (x86)\Exact Audio Copy\FLAC\FLAC.EXE
Additional command line options : -8 -V -T "ARTIST=%artist%" -T "TITLE=%title%" -T "ALBUM=%albumtitle%" -T "DATE=%year%" -T "TRACKNUMBER=%tracknr%" -T "GENRE=%genre%" -T "PERFORMER=%albuminterpret%" -T "COMPOSER=%composer%" %haslyrics%--tag-from-file=LYRICS="%lyricsfile%"%haslyrics% -T "ALBUMARTIST=%albumartist%" -T "DISCNUMBER=%cdnumber%" -T "TOTALDISCS=%totalcds%" -T "TOTALTRACKS=%numtracks%" -T "COMMENT=%comment%" %source% -o %dest%
TOC of the extracted CD
Track | Start | Length | Start sector | End sector
---------------------------------------------------------
1 | 0:00.00 | 10:04.00 | 0 | 45299
2 | 10:04.00 | 7:02.00 | 45300 | 76949
3 | 17:06.00 | 6:46.00 | 76950 | 107399
4 | 23:52.00 | 4:53.00 | 107400 | 129374
5 | 28:45.00 | 10:37.00 | 129375 | 177149
6 | 39:22.00 | 4:38.00 | 177150 | 197999
7 | 44:00.00 | 12:21.00 | 198000 | 253574
8 | 56:21.00 | 6:19.00 | 253575 | 281999
Track 1
Filename W:\_MUSIC ALL\Waclaw Zimpel Quartet - Stone Fog (2013) [FLAC]\01. Cold Blue Sky.wav
Pre-gap length 0:00:02.00
Peak level 98.6 %
Extraction speed 2.9 X
Track quality 100.0 %
Test CRC 970BA961
Copy CRC 970BA961
Track not present in AccurateRip database
Copy OK
Track 2
Filename W:\_MUSIC ALL\Waclaw Zimpel Quartet - Stone Fog (2013) [FLAC]\02. Old Feet Feel Out The Path.wav
Peak level 100.0 %
Extraction speed 3.3 X
Track quality 100.0 %
Test CRC B34BD9EE
Copy CRC B34BD9EE
Track not present in AccurateRip database
Copy OK
Track 3
Filename W:\_MUSIC ALL\Waclaw Zimpel Quartet - Stone Fog (2013) [FLAC]\03. A Sudden Shift Missed.wav
Peak level 100.0 %
Extraction speed 3.2 X
Track quality 99.9 %
Test CRC 37C31783
Copy CRC 37C31783
Track not present in AccurateRip database
Copy OK
Track 4
Filename W:\_MUSIC ALL\Waclaw Zimpel Quartet - Stone Fog (2013) [FLAC]\04. As The Moon Dips In Nettles.wav
Peak level 100.0 %
Extraction speed 3.8 X
Track quality 100.0 %
Test CRC E94BE431
Copy CRC E94BE431
Track not present in AccurateRip database
Copy OK
Track 5
Filename W:\_MUSIC ALL\Waclaw Zimpel Quartet - Stone Fog (2013) [FLAC]\05. Hundred Of Wings Steel The Sun.wav
Peak level 100.0 %
Extraction speed 4.4 X
Track quality 100.0 %
Test CRC A7B3822D
Copy CRC A7B3822D
Track not present in AccurateRip database
Copy OK
Track 6
Filename W:\_MUSIC ALL\Waclaw Zimpel Quartet - Stone Fog (2013) [FLAC]\06. River Willows Sway.wav
Peak level 60.9 %
Extraction speed 4.3 X
Track quality 100.0 %
Test CRC 8CC6AB33
Copy CRC 8CC6AB33
Track not present in AccurateRip database
Copy OK
Track 7
Filename W:\_MUSIC ALL\Waclaw Zimpel Quartet - Stone Fog (2013) [FLAC]\07. One Side Of My Face Is Colder Than The Other.wav
Peak level 100.0 %
Extraction speed 4.6 X
Track quality 99.9 %
Test CRC 409E79A2
Copy CRC 409E79A2
Track not present in AccurateRip database
Copy OK
Track 8
Filename W:\_MUSIC ALL\Waclaw Zimpel Quartet - Stone Fog (2013) [FLAC]\08. Stone Fog.wav
Peak level 100.0 %
Extraction speed 5.0 X
Track quality 100.0 %
Test CRC B4DB554D
Copy CRC B4DB554D
Track not present in AccurateRip database
Copy OK
None of the tracks are present in the AccurateRip database
No errors occurred
End of status report
---- CUETools DB Plugin V2.1.3
[CTDB TOCID: CtISUp8UPL.p_iRAzIIkFWhTNTY-] found, Submit result: CtISUp8UPL.p_iRAzIIkFWhTNTY- has been confirmed
[0744087a] (1/3) No match
[39e7ac6e] (2/3) Accurately ripped
==== Log checksum 61A321394DBE8C8F22A6FCC369046F6F117260CF0A064E48E023D961DE453CC6 ====
 
Содержание индексной карты (.CUE)
REM GENRE Jazz
REM DATE 2012
REM DISCID 640EB008
REM COMMENT "ExactAudioCopy v1.0b3"
PERFORMER "Waclaw Zimpel Quartet"
TITLE "Stone Fog"
FILE "01. Cold Blue Sky.wav" WAVE
TRACK 01 AUDIO
TITLE "Cold Blue Sky"
PERFORMER "Waclaw Zimpel Quartet"
ISRC PLH161300052
INDEX 01 00:00:00
FILE "02. Old Feet Feel Out The Path.wav" WAVE
TRACK 02 AUDIO
TITLE "Old Feet Feel Out The Path"
PERFORMER "Waclaw Zimpel Quartet"
ISRC PLH161300053
INDEX 01 00:00:00
FILE "03. A Sudden Shift Missed.wav" WAVE
TRACK 03 AUDIO
TITLE "A Sudden Shift Missed"
PERFORMER "Waclaw Zimpel Quartet"
ISRC PLH161300054
INDEX 01 00:00:00
FILE "04. As The Moon Dips In Nettles.wav" WAVE
TRACK 04 AUDIO
TITLE "As The Moon Dips In Nettles"
PERFORMER "Waclaw Zimpel Quartet"
ISRC PLH161300055
INDEX 01 00:00:00
FILE "05. Hundred Of Wings Steel The Sun.wav" WAVE
TRACK 05 AUDIO
TITLE "Hundred Of Wings Steel The Sun"
PERFORMER "Waclaw Zimpel Quartet"
ISRC PLH161300056
INDEX 01 00:00:00
FILE "06. River Willows Sway.wav" WAVE
TRACK 06 AUDIO
TITLE "River Willows Sway"
PERFORMER "Waclaw Zimpel Quartet"
ISRC PLH161300057
INDEX 01 00:00:00
FILE "07. One Side Of My Face Is Colder Than The Other.wav" WAVE
TRACK 07 AUDIO
TITLE "One Side Of My Face Is Colder Than The Other"
PERFORMER "Waclaw Zimpel Quartet"
ISRC PLH161300058
INDEX 01 00:00:00
FILE "08. Stone Fog.wav" WAVE
TRACK 08 AUDIO
TITLE "Stone Fog"
PERFORMER "Waclaw Zimpel Quartet"
ISRC PLH161300059
INDEX 01 00:00:00
 
Об альбоме (сборнике)
Wacław Zimpel is a classical clarinetist and a composer. Church music and ritual music of various cultures are the main source of his inspiration. His compositions often refer to the works of old-time composers; he either engages in a contemporary polemic with the latter or comments on musical traditions. He is a leader of Wacław Zimpel Quartet, Hera, and Undivided ensembles, and a member of Ken Vandermark’s Resonance orchestra. He collaborates with Hamid Drake, Joe McPhee, Mikołaj Trzaska, Michael Zerang, GiridharUdupa, Steve Swell, Bobby Few, Mark Tokar and Perry Robinson. Eyal Hareuveni, a reviewer for the prestigious “All About Jazz” magazine, wrote: “Wacław Zimpel is one of the most promising European musicians”. “Stone Fog” is the first album recorded by Wacław Zimpel Quartet the forming of which was quite inevitable as its four members were brought together by music fascinations, mutual performances and a horizon of European traditions: Klaus Kugel brings in his “spatial drumming” reminiscent of liturgical music, Christian Ramond’s bass playing perfectly corresponds with abstract and intuitive rhythms produced by Kugel, Krzysztof Dyś draws his inspiration from Prokofiev and Scriabin, Wacław Zimpel clarinets are once lyrical, once Slavic in tone. The whole set of pieces is set in a very European, free jazz context. Wacław Zimpel Quartet is not just four music personalities engaged together, it is also a group of people with common roots, on a common quest, with a variety of inspirations brought in by individual musicians.
 
Состав
Wacław Zimpel - bassclarinet, alto & Bb clarinets, tarogato, overtone flute, composition
Krzysztof Dys - piano, fender rhodes
Christian Ramond - double bass
Klaus Kugel - drums, percussion
Any questions -> support@pro-jazz.com. По всем вопросам пишите -> support@pro-jazz.com
20:43
117
Нет комментариев. Ваш будет первым!