Вы используете незарегистрированную версию компонента "Вкладки"!

Поиск

(Avant-Garde Jazz, Free Improvisation, merging rock, noise) Pet Bottle Ningen (Dave Scanlon, Nonoko Yoshida, Dave Miller) - Non-Recyclable - 2013, FLAC (image+.cue), lossless

(Avant-Garde Jazz, Free Improvisation, merging rock, noise) Pet Bottle Ningen (Dave Scanlon, Nonoko Yoshida, Dave Miller) - Non-Recyclable - 2013, FLAC (image+.cue), lossless
Треклист:
Pet Bottle Ningen / Non-Recyclable
Жанр: Avant-Garde Jazz, Free Improvisation, merging rock, noise
Страна-производитель диска: US
Год издания: 2013
Издатель (лейбл): Tzadik
Номер по каталогу: 806
Аудиокодек: FLAC (*.flac)
Тип рипа: image+.cue
Битрейт аудио: lossless
Продолжительность: 53:26
Источник (релизер): cd
Наличие сканов в содержимом раздачи: нет
Треклист:
1. Mijinko 1:47
2. Lick Sketches #3 3:15
3. She Divided 3:33
4. Chocolate With 4:05
5. Eleven Months 7:44
6. Konta 4:12
7. Peacock Spider 2:33
8. Creatures of Habit 7:00
9. Ai 2:57
10. Comments 5:29
11. Tiny Sonata 1:36
12. Lick Sketches #4 1:55
13. Glaucus Atlanticus 3:09
14. While Sitting 4:10
 
Лог создания рипа
Exact Audio Copy V1.0 beta 2 from 29. April 2011
EAC extraction logfile from 20. November 2013, 14:29
Pet Bottle Ningen / Non-Recyclable
Used drive : Optiarc DVD RW AD-7170A Adapter: 0 ID: 0
Read mode : Secure
Utilize accurate stream : Yes
Defeat audio cache : Yes
Make use of C2 pointers : No
Read offset correction : 48
Overread into Lead-In and Lead-Out : No
Fill up missing offset samples with silence : Yes
Delete leading and trailing silent blocks : No
Null samples used in CRC calculations : Yes
Used interface : Native Win32 interface for Win NT & 2000
Used output format : User Defined Encoder
Selected bitrate : 320 kBit/s
Quality : High
Add ID3 tag : No
Command line compressor : C:\Program Files\Exact Audio Copy\Flac\flac.exe
Additional command line options : -V -8 -T "Date=%year%" -T "Genre=%genre%" %source%
TOC of the extracted CD
Track | Start | Length | Start sector | End sector
---------------------------------------------------------
1 | 0:00.00 | 1:47.16 | 0 | 8040
2 | 1:47.16 | 3:14.70 | 8041 | 22660
3 | 5:02.11 | 3:32.39 | 22661 | 38599
4 | 8:34.50 | 4:05.16 | 38600 | 56990
5 | 12:39.66 | 7:44.37 | 56991 | 91827
6 | 20:24.28 | 4:12.27 | 91828 | 110754
7 | 24:36.55 | 2:33.01 | 110755 | 122230
8 | 27:09.56 | 7:00.09 | 122231 | 153739
9 | 34:09.65 | 2:57.33 | 153740 | 167047
10 | 37:07.23 | 5:28.57 | 167048 | 191704
11 | 42:36.05 | 1:36.13 | 191705 | 198917
12 | 44:12.18 | 1:55.19 | 198918 | 207561
13 | 46:07.37 | 3:08.58 | 207562 | 221719
14 | 49:16.20 | 4:10.22 | 221720 | 240491
Range status and errors
Selected range
Filename K:\ЕАС\Pet Bottle Ningen - Non-Recyclable.wav
Peak level 99.4 %
Extraction speed 4.9 X
Range quality 100.0 %
Test CRC 1ACC61CE
Copy CRC 1ACC61CE
Copy OK
No errors occurred
AccurateRip summary
Track 1 accurately ripped (confidence 1) [72EA37BD] (AR v2)
Track 2 accurately ripped (confidence 1) [818A19B4] (AR v2)
Track 3 accurately ripped (confidence 1) [893F3099] (AR v2)
Track 4 accurately ripped (confidence 1) [1BB7BCC5] (AR v2)
Track 5 accurately ripped (confidence 1) [B28F0ACE] (AR v2)
Track 6 accurately ripped (confidence 1) [7E5E3A89] (AR v2)
Track 7 accurately ripped (confidence 1) [1F92B45E] (AR v2)
Track 8 accurately ripped (confidence 1) [EEDA99CB] (AR v2)
Track 9 accurately ripped (confidence 1) [56F9D2D5] (AR v2)
Track 10 accurately ripped (confidence 1) [AD792472] (AR v2)
Track 11 accurately ripped (confidence 1) [43A03780] (AR v2)
Track 12 accurately ripped (confidence 1) [352892CA] (AR v2)
Track 13 accurately ripped (confidence 1) [1FAC4C15] (AR v2)
Track 14 accurately ripped (confidence 1) [BF9195F3] (AR v2)
All tracks accurately ripped
End of status report
==== Log checksum 47076A500624323AA680F70B729429D739F0F42C160879CBC82A9AB4B2E7E5C9 ====
 
Содержание индексной карты (.CUE)
REM GENRE Jazz
REM DATE 2013
REM DISCID C30C860E
REM COMMENT "ExactAudioCopy v1.0b2"
PERFORMER "Pet Bottle Ningen"
TITLE "Non-Recyclable"
FILE "Pet Bottle Ningen - Non-Recyclable.flac" WAVE
TRACK 01 AUDIO
TITLE "Mijinko"
PERFORMER "Pet Bottle Ningen"
ISRC 000000000000
FLAGS DCP
INDEX 01 00:00:00
TRACK 02 AUDIO
TITLE "Lick Sketches #3"
PERFORMER "Pet Bottle Ningen"
ISRC 000000000000
FLAGS DCP
INDEX 01 01:47:16
TRACK 03 AUDIO
TITLE "She Divided"
PERFORMER "Pet Bottle Ningen"
ISRC 000000000000
FLAGS DCP
INDEX 01 05:02:11
TRACK 04 AUDIO
TITLE "Chocolate With"
PERFORMER "Pet Bottle Ningen"
ISRC 000000000000
FLAGS DCP
INDEX 01 08:34:50
TRACK 05 AUDIO
TITLE "Eleven Months"
PERFORMER "Pet Bottle Ningen"
ISRC 000000000000
FLAGS DCP
INDEX 01 12:39:66
TRACK 06 AUDIO
TITLE "Konta"
PERFORMER "Pet Bottle Ningen"
ISRC 000000000000
FLAGS DCP
INDEX 01 20:24:28
TRACK 07 AUDIO
TITLE "Peacock Spider"
PERFORMER "Pet Bottle Ningen"
ISRC 000000000000
FLAGS DCP
INDEX 01 24:36:55
TRACK 08 AUDIO
TITLE "Creatures of Habit"
PERFORMER "Pet Bottle Ningen"
ISRC 000000000000
FLAGS DCP
INDEX 01 27:09:56
TRACK 09 AUDIO
TITLE "Ai"
PERFORMER "Pet Bottle Ningen"
ISRC 000000000000
FLAGS DCP
INDEX 01 34:09:65
TRACK 10 AUDIO
TITLE "Comments"
PERFORMER "Pet Bottle Ningen"
ISRC 000000000000
FLAGS DCP
INDEX 01 37:07:23
TRACK 11 AUDIO
TITLE "Tiny Sonata"
PERFORMER "Pet Bottle Ningen"
ISRC 000000000000
FLAGS DCP
INDEX 01 42:36:05
TRACK 12 AUDIO
TITLE "Lick Sketches #4"
PERFORMER "Pet Bottle Ningen"
ISRC 000000000000
FLAGS DCP
INDEX 01 44:12:18
TRACK 13 AUDIO
TITLE "Glaucus Atlanticus"
PERFORMER "Pet Bottle Ningen"
ISRC 000000000000
FLAGS DCP
INDEX 01 46:07:37
TRACK 14 AUDIO
TITLE "While Sitting"
PERFORMER "Pet Bottle Ningen"
ISRC 000000000000
FLAGS DCP
INDEX 01 49:16:20
Доп. информация: Recorded by Martin Bisi at B.C. Studio, Brooklyn in September 2012.
 
Об альбоме (сборнике)
"For their second CD for Tzadik this fabulous trio of sax, guitar and drums presents a new group of compositions that are inspired by sea slugs, microbes, dogs, arachnids, sick friends, deep-sea creatures and more. A part of a new group of bands out of the Downtown NY and Brooklyn scenes combining composition, improvisation, rock, jazz and noise, Pet Bottle plays regularly in NYC, has toured the East Coast and gone to Japan three times. Incredible cutting-edge music from a new generation of musical adventurers."-Tzadik
 
Состав
Dave Scanlon - guitar
Nonoko Yoshida - alto saxophone
Dave Miller - drums, cymbals
Any questions -> support@pro-jazz.com. По всем вопросам пишите -> support@pro-jazz.com
20:42
114
Нет комментариев. Ваш будет первым!