Вы используете незарегистрированную версию компонента "Вкладки"!

Поиск

(Free Jazz, Free Bop) [CD] Charles Tyler & Ensemble (Ronnie Boykins, Steve Reid, Earl Cross, Arthur Blythe) - Voyage From Jericho - 1975, FLAC (tracks+.cue), lossless

(Free Jazz, Free Bop) [CD] Charles Tyler & Ensemble (Ronnie Boykins, Steve Reid, Earl Cross, Arthur Blythe) - Voyage From Jericho - 1975, FLAC (tracks+.cue), lossless
Треклист:
Charles Tyler & Ensemble / Voyage From Jericho
Жанр: Free Jazz, Free Bop
Носитель: CD
Страна-производитель диска: France
Год издания: 1993
Издатель (лейбл): Bleu Regard
Номер по каталогу: CT 1944
Страна: US
Аудиокодек: FLAC (*.flac)
Тип рипа: tracks+.cue
Битрейт аудио: lossless
Продолжительность: 45:31
Источник (релизер): свой фирменный диск
Наличие сканов в содержимом раздачи:
Треклист:
1. Voyage From Jericho 9:46
2. Return To The East 12:50
3. Just For Two 6:00
4. Children's Music March 5:50
5. Surf Ravin 10:30
 
Лог создания рипа
Exact Audio Copy V1.0 beta 3 from 29. August 2011
EAC extraction logfile from 6. April 2014, 12:32
Charles Tyler / Ensemble / Voyage From Jericho
Used drive : PIONEER DVD-RW DVR-115D Adapter: 0 ID: 0
Read mode : Secure
Utilize accurate stream : Yes
Defeat audio cache : Yes
Make use of C2 pointers : No
Read offset correction : 48
Overread into Lead-In and Lead-Out : No
Fill up missing offset samples with silence : Yes
Delete leading and trailing silent blocks : No
Null samples used in CRC calculations : Yes
Used interface : Installed external ASPI interface
Gap handling : Appended to previous track
Used output format : User Defined Encoder
Selected bitrate : 896 kBit/s
Quality : High
Add ID3 tag : No
Command line compressor : C:\Program Files\Exact Audio Copy\FLAC\FLAC.EXE
Additional command line options : -6 -V -T "ARTIST=%artist%" -T "TITLE=%title%" -T "ALBUM=%albumtitle%" -T "DATE=%year%" -T "TRACKNUMBER=%tracknr%" -T "GENRE=%genre%" -T "COMMENT=%comment%" -T "BAND=%albuminterpret%" -T "COMPOSER=%composer%" %haslyrics%--tag-from-file=LYRICS="%lyricsfile%"%haslyrics% -T "DISCNUMBER=%cdnumber%" -T "TOTALDISCS=%totalcds%" -T "TOTALTRACKS=%numtracks%" %hascover%--picture="%coverfile%"%hascover% %source% -o %dest%
TOC of the extracted CD
Track | Start | Length | Start sector | End sector
---------------------------------------------------------
1 | 0:00.32 | 9:48.00 | 32 | 44131
2 | 9:48.32 | 13:04.03 | 44132 | 102934
3 | 22:52.35 | 5:59.35 | 102935 | 129894
4 | 28:51.70 | 5:55.62 | 129895 | 156581
5 | 34:47.57 | 10:43.50 | 156582 | 204856
Track 1
Filename D:\zzz\01 - Voyage From Jericho.wav
Pre-gap length 0:00:02.32
Peak level 82.2 %
Extraction speed 4.9 X
Track quality 100.0 %
Test CRC 4F48118C
Copy CRC 4F48118C
Accurately ripped (confidence 1) [C8210FAC] (AR v2)
Copy OK
Track 2
Filename D:\zzz\02 - Return To The East.wav
Pre-gap length 0:00:03.72
Peak level 98.9 %
Extraction speed 6.2 X
Track quality 100.0 %
Test CRC 62A6541B
Copy CRC 62A6541B
Accurately ripped (confidence 1) [A6B5CBDC] (AR v2)
Copy OK
Track 3
Filename D:\zzz\03 - Just For Two.wav
Pre-gap length 0:00:05.65
Peak level 80.2 %
Extraction speed 6.6 X
Track quality 100.0 %
Test CRC AB311027
Copy CRC AB311027
Accurately ripped (confidence 1) [5EDE32B9] (AR v2)
Copy OK
Track 4
Filename D:\zzz\04 - Children's Music March.wav
Pre-gap length 0:00:02.33
Peak level 71.5 %
Extraction speed 7.0 X
Track quality 100.0 %
Test CRC 8711E1A4
Copy CRC 8711E1A4
Accurately ripped (confidence 1) [A464444C] (AR v2)
Copy OK
Track 5
Filename D:\zzz\05 - Surf Ravin.wav
Pre-gap length 0:00:03.00
Peak level 88.2 %
Extraction speed 7.9 X
Track quality 100.0 %
Test CRC E4635833
Copy CRC E4635833
Accurately ripped (confidence 1) [AEB04CC6] (AR v2)
Copy OK
All tracks accurately ripped
No errors occurred
End of status report
==== Log checksum 2B768ABEA148BF01FB1A8E846A6599462A96FD242B12A5735A093BBF5937811D ====
 
Содержание индексной карты (.CUE)
REM GENRE "Free Jazz"
REM DATE 1975
REM DISCID 400AAB05
REM COMMENT "ExactAudioCopy v1.0b3"
PERFORMER "Charles Tyler / Ensemble"
TITLE "Voyage From Jericho"
FILE "01 - Voyage From Jericho.wav" WAVE
TRACK 01 AUDIO
TITLE "Voyage From Jericho"
PERFORMER "Charles Tyler / Ensemble"
PREGAP 00:00:32
INDEX 01 00:00:00
TRACK 02 AUDIO
TITLE "Return To The East"
PERFORMER "Charles Tyler / Ensemble"
INDEX 00 09:44:03
FILE "02 - Return To The East.wav" WAVE
INDEX 01 00:00:00
TRACK 03 AUDIO
TITLE "Just For Two"
PERFORMER "Charles Tyler / Ensemble"
INDEX 00 12:58:13
FILE "03 - Just For Two.wav" WAVE
INDEX 01 00:00:00
TRACK 04 AUDIO
TITLE "Children's Music March"
PERFORMER "Charles Tyler / Ensemble"
INDEX 00 05:57:02
FILE "04 - Children's Music March.wav" WAVE
INDEX 01 00:00:00
TRACK 05 AUDIO
TITLE "Surf Ravin"
PERFORMER "Charles Tyler / Ensemble"
INDEX 00 05:52:62
FILE "05 - Surf Ravin.wav" WAVE
INDEX 01 00:00:00
 
Лог проверки качества
d:\>d:\aucdtect -d/-m0 d:\zzz\*.wav
auCDtect: CD records authenticity detector, version 0.8.2
Copyright (c) 2004 Oleg Berngardt. All rights reserved.
Copyright (c) 2004 Alexander Djourik. All rights reserved.
------------------------------------------------------------
Processing file: [01. Voyage From Jericho.wav]
------------------------------------------------------------
This track looks like CDDA with probability 100%
------------------------------------------------------------
Processing file: [02. Return To The East.wav]
------------------------------------------------------------
This track looks like CDDA with probability 100%
------------------------------------------------------------
Processing file: [03. Just For Two.wav]
------------------------------------------------------------
This track looks like CDDA with probability 100%
------------------------------------------------------------
Processing file: [04. Children's Music March.wav]
------------------------------------------------------------
This track looks like CDDA with probability 100%
------------------------------------------------------------
Processing file: [05. Surf Ravin.wav]
------------------------------------------------------------
This track looks like CDDA with probability 100%
------------------------------------------------------------
Final Conclusion:
------------------------------------------------------------
These tracks looks like CDDA with probability 100%
Доп. информация:
 
Album Info
All compositions written and arranged by Charles Tyler, except 3. which is by Earl Cross
Produced by Charles Tyler
Recorded at Studio We, NYC, July 1974
Recording engineer: Ali Abuwi and Juma
Cover design idea: Tyler Family
Layout, printing and jackets: Mac Murray Press, N.Y.
Transfert analogique - digital: Christophe Bertrand, "DIALOGUE MUSICAL" Avignon
Editing: Gerard de Haro / Studio Aid Pernes Les Fontaines
 
Состав
Charles Tyler: alto and baritone sax
Ronnie Boykins: bass
Earl Cross: trumpet
Steve Reid: drums
Arthur Blythe: alto sax on 1. and 5.
По всем вопросам пишите личное сообщение пользователю M0p94ok.
02:02
254
Нет комментариев. Ваш будет первым!