Поиск

(Avant-Garde Jazz, Intakt, Percussion Music) [CD] Pierre Favre - Drums And Dreams (3CD) (recorded 1970-78) - 2012, FLAC (tracks+.cue), lossless

(Avant-Garde Jazz, Intakt, Percussion Music) [CD] Pierre Favre - Drums And Dreams (3CD) (recorded 1970-78) - 2012, FLAC (tracks+.cue), lossless
Издатель (лейбл):
Pierre Favre / Drums And Dreams (3CD) (recorded 1970-78)
Жанр: Avant-Garde Jazz, Intakt, Percussion Music
Носитель: CD
Страна-производитель диска: Switzerland
Год издания: 2012
Издатель (лейбл): Intakt Records
Номер по каталогу: Intakt CD 197
Страна: Switzerland
Аудиокодек: FLAC (*.flac)
Тип рипа: tracks+.cue
Битрейт аудио: lossless
Продолжительность: 44:40 + 43:20 + 36:32
Источник (релизер): свой фирменный диск
Наличие сканов в содержимом раздачи:
Треклист:
 
CD1 - Drum Conversation, 1972
1. Dance Number One 2:42
2. Drum Conversation 3:29
3. Still Waiting 2:46
4. Swiss Sunday 3:09
5. Nameless 3:05
6. Patience 4:27
7. Rainbow 2:40
8. Where Is It? 3:27
9. Madame Boss 1:52
10. Dear Anne 1:21
11. Petite Fille 2:14
12. Obstructing Doors Causes Delay And Could Be Dangerous 3:27
13. The Blue Picture 5:03
14. What... No Smile Today? 5:01
 
CD2 - Abanaba, 1972
1. Dimitri (Le Clown) 10:09
2. Katybaby 4:16
3. Kyoto 4:40
4. Roro 4:21
5. Gerunonius 5:53
6. YesYes 3:53
7. Abanaba 2:49
8. Odetooldie 3:26
9. Rira Bien Qui Rira Le Dernier 3:56
 
CD3 - Mountain Wind, 1981
1. Song For A Princess 10:07
2. Pierre Des Neiges 6:05
3. Talking Birds 3:17
4. Mountain Wind 12:23
5. Alexis Cadillac 4:42
 
Лог создания рипа
 
CD1
Exact Audio Copy V1.0 beta 3 from 29. August 2011
EAC extraction logfile from 6. April 2014, 15:02
Pierre Favre / Drums And Dreams CD1
Used drive : PIONEER DVD-RW DVR-115D Adapter: 0 ID: 0
Read mode : Secure
Utilize accurate stream : Yes
Defeat audio cache : Yes
Make use of C2 pointers : No
Read offset correction : 48
Overread into Lead-In and Lead-Out : No
Fill up missing offset samples with silence : Yes
Delete leading and trailing silent blocks : No
Null samples used in CRC calculations : Yes
Used interface : Installed external ASPI interface
Gap handling : Appended to previous track
Used output format : User Defined Encoder
Selected bitrate : 896 kBit/s
Quality : High
Add ID3 tag : No
Command line compressor : C:\Program Files\Exact Audio Copy\FLAC\FLAC.EXE
Additional command line options : -6 -V -T "ARTIST=%artist%" -T "TITLE=%title%" -T "ALBUM=%albumtitle%" -T "DATE=%year%" -T "TRACKNUMBER=%tracknr%" -T "GENRE=%genre%" -T "COMMENT=%comment%" -T "BAND=%albuminterpret%" -T "COMPOSER=%composer%" %haslyrics%--tag-from-file=LYRICS="%lyricsfile%"%haslyrics% -T "DISCNUMBER=%cdnumber%" -T "TOTALDISCS=%totalcds%" -T "TOTALTRACKS=%numtracks%" %hascover%--picture="%coverfile%"%hascover% %source% -o %dest%
TOC of the extracted CD
Track | Start | Length | Start sector | End sector
---------------------------------------------------------
1 | 0:00.00 | 2:42.15 | 0 | 12164
2 | 2:42.15 | 3:28.49 | 12165 | 27813
3 | 6:10.64 | 2:46.15 | 27814 | 40278
4 | 8:57.04 | 3:11.19 | 40279 | 54622
5 | 12:08.23 | 3:04.30 | 54623 | 68452
6 | 15:12.53 | 4:26.66 | 68453 | 88468
7 | 19:39.44 | 2:39.39 | 88469 | 100432
8 | 22:19.08 | 3:26.59 | 100433 | 115941
9 | 25:45.67 | 1:51.39 | 115942 | 124305
10 | 27:37.31 | 1:20.40 | 124306 | 130345
11 | 28:57.71 | 2:13.62 | 130346 | 140382
12 | 31:11.58 | 3:27.18 | 140383 | 155925
13 | 34:39.01 | 5:03.26 | 155926 | 178676
14 | 39:42.27 | 4:58.08 | 178677 | 201034
Track 1
Filename D:\zzz\01 - Dance Number One.wav
Pre-gap length 0:00:02.00
Peak level 89.4 %
Extraction speed 3.9 X
Track quality 100.0 %
Test CRC 21E4F73E
Copy CRC 21E4F73E
Track not present in AccurateRip database
Copy OK
Track 2
Filename D:\zzz\02 - Drum Conversation.wav
Pre-gap length 0:00:01.74
Peak level 89.4 %
Extraction speed 4.5 X
Track quality 100.0 %
Test CRC 5ED4E672
Copy CRC 5ED4E672
Track not present in AccurateRip database
Copy OK
Track 3
Filename D:\zzz\03 - Still Waiting.wav
Pre-gap length 0:00:01.74
Peak level 89.3 %
Extraction speed 4.7 X
Track quality 100.0 %
Test CRC D10036A0
Copy CRC D10036A0
Track not present in AccurateRip database
Copy OK
Track 4
Filename D:\zzz\04 - Swiss Sunday.wav
Pre-gap length 0:00:01.74
Peak level 89.3 %
Extraction speed 4.4 X
Track quality 99.9 %
Test CRC B9E90C6E
Copy CRC B9E90C6E
Track not present in AccurateRip database
Copy OK
Track 5
Filename D:\zzz\05 - Nameless.wav
Pre-gap length 0:00:01.74
Peak level 89.3 %
Extraction speed 5.3 X
Track quality 100.0 %
Test CRC 730D989D
Copy CRC 730D989D
Track not present in AccurateRip database
Copy OK
Track 6
Filename D:\zzz\06 - Patience.wav
Pre-gap length 0:00:01.74
Peak level 89.3 %
Extraction speed 5.3 X
Track quality 99.9 %
Test CRC E55B9AFB
Copy CRC E55B9AFB
Track not present in AccurateRip database
Copy OK
Track 7
Filename D:\zzz\07 - Rainbow.wav
Pre-gap length 0:00:01.74
Peak level 89.3 %
Extraction speed 5.7 X
Track quality 100.0 %
Test CRC BEF3996B
Copy CRC BEF3996B
Track not present in AccurateRip database
Copy OK
Track 8
Filename D:\zzz\08 - Where Is It.wav
Pre-gap length 0:00:01.74
Peak level 89.3 %
Extraction speed 5.2 X
Track quality 99.9 %
Test CRC 53E8BC4D
Copy CRC 53E8BC4D
Track not present in AccurateRip database
Copy OK
Track 9
Filename D:\zzz\09 - Madame Boss.wav
Pre-gap length 0:00:01.74
Peak level 89.4 %
Extraction speed 4.5 X
Track quality 99.9 %
Test CRC 20A25E39
Copy CRC 20A25E39
Track not present in AccurateRip database
Copy OK
Track 10
Filename D:\zzz\10 - Dear Anne.wav
Pre-gap length 0:00:01.74
Peak level 89.3 %
Extraction speed 5.2 X
Track quality 100.0 %
Test CRC A406D00E
Copy CRC A406D00E
Track not present in AccurateRip database
Copy OK
Track 11
Filename D:\zzz\11 - Petite Fille.wav
Pre-gap length 0:00:01.74
Peak level 89.4 %
Extraction speed 6.0 X
Track quality 100.0 %
Test CRC B3DCC661
Copy CRC B3DCC661
Track not present in AccurateRip database
Copy OK
Track 12
Filename D:\zzz\12 - Obstructing Doors Causes Delay and Could Be Dangerous.wav
Pre-gap length 0:00:01.74
Peak level 89.4 %
Extraction speed 6.7 X
Track quality 100.0 %
Test CRC 26259F5B
Copy CRC 26259F5B
Track not present in AccurateRip database
Copy OK
Track 13
Filename D:\zzz\13 - The Blue Picture.wav
Pre-gap length 0:00:01.74
Peak level 89.4 %
Extraction speed 6.5 X
Track quality 99.9 %
Test CRC 6609FD07
Copy CRC 6609FD07
Track not present in AccurateRip database
Copy OK
Track 14
Filename D:\zzz\14 - What...No Smile Today.wav
Pre-gap length 0:00:01.74
Peak level 89.3 %
Extraction speed 7.6 X
Track quality 100.0 %
Test CRC 902AC932
Copy CRC 902AC932
Track not present in AccurateRip database
Copy OK
None of the tracks are present in the AccurateRip database
No errors occurred
End of status report
==== Log checksum 6A703CC1ECBDB4C2897F4932B4375EC1C540942C14145E01F185EA465E3A1BB4 ====
 
CD2
Exact Audio Copy V1.0 beta 3 from 29. August 2011
EAC extraction logfile from 6. April 2014, 22:31
Pierre Favre / Drums And Dreams CD2
Used drive : PIONEER DVD-RW DVR-115D Adapter: 0 ID: 0
Read mode : Secure
Utilize accurate stream : Yes
Defeat audio cache : Yes
Make use of C2 pointers : No
Read offset correction : 48
Overread into Lead-In and Lead-Out : No
Fill up missing offset samples with silence : Yes
Delete leading and trailing silent blocks : No
Null samples used in CRC calculations : Yes
Used interface : Installed external ASPI interface
Gap handling : Appended to previous track
Used output format : User Defined Encoder
Selected bitrate : 896 kBit/s
Quality : High
Add ID3 tag : No
Command line compressor : C:\Program Files\Exact Audio Copy\FLAC\FLAC.EXE
Additional command line options : -6 -V -T "ARTIST=%artist%" -T "TITLE=%title%" -T "ALBUM=%albumtitle%" -T "DATE=%year%" -T "TRACKNUMBER=%tracknr%" -T "GENRE=%genre%" -T "COMMENT=%comment%" -T "BAND=%albuminterpret%" -T "COMPOSER=%composer%" %haslyrics%--tag-from-file=LYRICS="%lyricsfile%"%haslyrics% -T "DISCNUMBER=%cdnumber%" -T "TOTALDISCS=%totalcds%" -T "TOTALTRACKS=%numtracks%" %hascover%--picture="%coverfile%"%hascover% %source% -o %dest%
TOC of the extracted CD
Track | Start | Length | Start sector | End sector
---------------------------------------------------------
1 | 0:00.00 | 10:09.27 | 0 | 45701
2 | 10:09.27 | 4:16.20 | 45702 | 64921
3 | 14:25.47 | 4:39.33 | 64922 | 85879
4 | 19:05.05 | 4:20.71 | 85880 | 105450
5 | 23:26.01 | 5:52.63 | 105451 | 131913
6 | 29:18.64 | 3:53.01 | 131914 | 149389
7 | 33:11.65 | 2:48.57 | 149390 | 162046
8 | 36:00.47 | 3:25.43 | 162047 | 177464
9 | 39:26.15 | 3:54.05 | 177465 | 195019
Track 1
Filename D:\zzz\01 - Dimitri ( Le Clown).wav
Pre-gap length 0:00:02.00
Peak level 89.4 %
Extraction speed 5.0 X
Track quality 100.0 %
Test CRC B7306B7C
Copy CRC B7306B7C
Track not present in AccurateRip database
Copy OK
Track 2
Filename D:\zzz\02 - Katybaby.wav
Pre-gap length 0:00:01.74
Peak level 89.3 %
Extraction speed 4.8 X
Track quality 99.9 %
Test CRC 3E1CA4FB
Copy CRC 3E1CA4FB
Track not present in AccurateRip database
Copy OK
Track 3
Filename D:\zzz\03 - Kyoto.wav
Pre-gap length 0:00:01.74
Peak level 75.6 %
Extraction speed 5.8 X
Track quality 100.0 %
Test CRC 47E97231
Copy CRC 47E97231
Track not present in AccurateRip database
Copy OK
Track 4
Filename D:\zzz\04 - Roro.wav
Pre-gap length 0:00:01.74
Peak level 89.4 %
Extraction speed 5.5 X
Track quality 99.9 %
Test CRC 7E48535F
Copy CRC 7E48535F
Track not present in AccurateRip database
Copy OK
Track 5
Filename D:\zzz\05 - Gerunonious.wav
Pre-gap length 0:00:01.74
Peak level 79.9 %
Extraction speed 6.7 X
Track quality 100.0 %
Test CRC A828CD7D
Copy CRC A828CD7D
Track not present in AccurateRip database
Copy OK
Track 6
Filename D:\zzz\06 - YesYes.wav
Pre-gap length 0:00:01.74
Peak level 89.6 %
Extraction speed 5.9 X
Track quality 99.9 %
Test CRC E6A4C287
Copy CRC E6A4C287
Track not present in AccurateRip database
Copy OK
Track 7
Filename D:\zzz\07 - Abanaba.wav
Pre-gap length 0:00:01.74
Peak level 89.4 %
Extraction speed 6.5 X
Track quality 100.0 %
Test CRC 1CA83C72
Copy CRC 1CA83C72
Track not present in AccurateRip database
Copy OK
Track 8
Filename D:\zzz\08 - Odetooldie.wav
Pre-gap length 0:00:01.74
Peak level 87.8 %
Extraction speed 7.0 X
Track quality 100.0 %
Test CRC 0B10AEAC
Copy CRC 0B10AEAC
Track not present in AccurateRip database
Copy OK
Track 9
Filename D:\zzz\09 - Rira Bien Qui Rira Le Dernier.wav
Pre-gap length 0:00:01.74
Peak level 89.4 %
Extraction speed 6.4 X
Track quality 99.9 %
Test CRC C70FDAD7
Copy CRC C70FDAD7
Track not present in AccurateRip database
Copy OK
None of the tracks are present in the AccurateRip database
No errors occurred
End of status report
==== Log checksum 858B80FD7861AAE42B4A3CD0FFA2B8514FD11B871A99CF25E34EE12285EF6357 ====
 
CD3
Exact Audio Copy V1.0 beta 3 from 29. August 2011
EAC extraction logfile from 7. April 2014, 19:48
Pierre Favre / Drums and Dreams CD3
Used drive : PIONEER DVD-RW DVR-115D Adapter: 0 ID: 0
Read mode : Secure
Utilize accurate stream : Yes
Defeat audio cache : Yes
Make use of C2 pointers : No
Read offset correction : 48
Overread into Lead-In and Lead-Out : No
Fill up missing offset samples with silence : Yes
Delete leading and trailing silent blocks : No
Null samples used in CRC calculations : Yes
Used interface : Installed external ASPI interface
Gap handling : Appended to previous track
Used output format : User Defined Encoder
Selected bitrate : 896 kBit/s
Quality : High
Add ID3 tag : No
Command line compressor : C:\Program Files\Exact Audio Copy\FLAC\FLAC.EXE
Additional command line options : -6 -V -T "ARTIST=%artist%" -T "TITLE=%title%" -T "ALBUM=%albumtitle%" -T "DATE=%year%" -T "TRACKNUMBER=%tracknr%" -T "GENRE=%genre%" -T "COMMENT=%comment%" -T "BAND=%albuminterpret%" -T "COMPOSER=%composer%" %haslyrics%--tag-from-file=LYRICS="%lyricsfile%"%haslyrics% -T "DISCNUMBER=%cdnumber%" -T "TOTALDISCS=%totalcds%" -T "TOTALTRACKS=%numtracks%" %hascover%--picture="%coverfile%"%hascover% %source% -o %dest%
TOC of the extracted CD
Track | Start | Length | Start sector | End sector
---------------------------------------------------------
1 | 0:00.00 | 10:07.22 | 0 | 45546
2 | 10:07.22 | 6:05.33 | 45547 | 72954
3 | 16:12.55 | 3:17.13 | 72955 | 87742
4 | 19:29.68 | 12:22.55 | 87743 | 143447
5 | 31:52.48 | 4:40.12 | 143448 | 164459
Track 1
Filename D:\zzz\01 - Song For A Princess.wav
Pre-gap length 0:00:02.00
Peak level 89.4 %
Extraction speed 5.0 X
Track quality 100.0 %
Test CRC 5B4E6632
Copy CRC 5B4E6632
Track not present in AccurateRip database
Copy OK
Track 2
Filename D:\zzz\02 - Pierre Des Neiges.wav
Pre-gap length 0:00:01.73
Peak level 91.4 %
Extraction speed 5.7 X
Track quality 100.0 %
Test CRC A783BE78
Copy CRC A783BE78
Track not present in AccurateRip database
Copy OK
Track 3
Filename D:\zzz\03 - Talking Birds.wav
Pre-gap length 0:00:01.74
Peak level 87.5 %
Extraction speed 4.9 X
Track quality 99.9 %
Test CRC D9E55660
Copy CRC D9E55660
Track not present in AccurateRip database
Copy OK
Track 4
Filename D:\zzz\04 - Mountain Wind.wav
Pre-gap length 0:00:01.74
Peak level 91.8 %
Extraction speed 7.0 X
Track quality 100.0 %
Test CRC FFB663D4
Copy CRC FFB663D4
Track not present in AccurateRip database
Copy OK
Track 5
Filename D:\zzz\05 - Alexis Cadillac.wav
Pre-gap length 0:00:01.74
Peak level 91.7 %
Extraction speed 7.0 X
Track quality 100.0 %
Test CRC C4F66D37
Copy CRC C4F66D37
Track not present in AccurateRip database
Copy OK
None of the tracks are present in the AccurateRip database
No errors occurred
End of status report
==== Log checksum 0CF3C0C626393EB651434D7F7B0CF84E81A0CC5A4FE099043CFC11DE34A952A4 ====
 
Содержание индексной карты (.CUE)
 
CD1
REM GENRE "Percussion Music"
REM DATE 2012
REM DISCID BF0A780E
REM COMMENT "ExactAudioCopy v1.0b3"
PERFORMER "Pierre Favre"
TITLE "Drums And Dreams CD1"
FILE "01 - Dance Number One.wav" WAVE
TRACK 01 AUDIO
TITLE "Dance Number One"
PERFORMER "Pierre Favre"
INDEX 01 00:00:00
TRACK 02 AUDIO
TITLE "Drum Conversation"
PERFORMER "Pierre Favre"
INDEX 00 02:40:16
FILE "02 - Drum Conversation.wav" WAVE
INDEX 01 00:00:00
TRACK 03 AUDIO
TITLE "Still Waiting"
PERFORMER "Pierre Favre"
INDEX 00 03:26:50
FILE "03 - Still Waiting.wav" WAVE
INDEX 01 00:00:00
TRACK 04 AUDIO
TITLE "Swiss Sunday"
PERFORMER "Pierre Favre"
INDEX 00 02:44:16
FILE "04 - Swiss Sunday.wav" WAVE
INDEX 01 00:00:00
TRACK 05 AUDIO
TITLE "Nameless"
PERFORMER "Pierre Favre"
INDEX 00 03:09:20
FILE "05 - Nameless.wav" WAVE
INDEX 01 00:00:00
TRACK 06 AUDIO
TITLE "Patience"
PERFORMER "Pierre Favre"
INDEX 00 03:02:31
FILE "06 - Patience.wav" WAVE
INDEX 01 00:00:00
TRACK 07 AUDIO
TITLE "Rainbow"
PERFORMER "Pierre Favre"
INDEX 00 04:24:67
FILE "07 - Rainbow.wav" WAVE
INDEX 01 00:00:00
TRACK 08 AUDIO
TITLE "Where Is It?"
PERFORMER "Pierre Favre"
INDEX 00 02:37:40
FILE "08 - Where Is It.wav" WAVE
INDEX 01 00:00:00
TRACK 09 AUDIO
TITLE "Madame Boss"
PERFORMER "Pierre Favre"
INDEX 00 03:24:60
FILE "09 - Madame Boss.wav" WAVE
INDEX 01 00:00:00
TRACK 10 AUDIO
TITLE "Dear Anne"
PERFORMER "Pierre Favre"
INDEX 00 01:49:40
FILE "10 - Dear Anne.wav" WAVE
INDEX 01 00:00:00
TRACK 11 AUDIO
TITLE "Petite Fille"
PERFORMER "Pierre Favre"
INDEX 00 01:18:41
FILE "11 - Petite Fille.wav" WAVE
INDEX 01 00:00:00
TRACK 12 AUDIO
TITLE "Obstructing Doors Causes Delay and Could Be Dangerous"
PERFORMER "Pierre Favre"
INDEX 00 02:11:63
FILE "12 - Obstructing Doors Causes Delay and Could Be Dangerous.wav" WAVE
INDEX 01 00:00:00
TRACK 13 AUDIO
TITLE "The Blue Picture"
PERFORMER "Pierre Favre"
INDEX 00 03:25:19
FILE "13 - The Blue Picture.wav" WAVE
INDEX 01 00:00:00
TRACK 14 AUDIO
TITLE "What...No Smile Today? "
PERFORMER "Pierre Favre"
INDEX 00 05:01:27
FILE "14 - What...No Smile Today.wav" WAVE
INDEX 01 00:00:00
 
CD2
REM GENRE "Percussion Music"
REM DATE 2012
REM DISCID 7B0A2809
REM COMMENT "ExactAudioCopy v1.0b3"
PERFORMER "Pierre Favre"
TITLE "Drums And Dreams CD2"
FILE "01 - Dimitri ( Le Clown).wav" WAVE
TRACK 01 AUDIO
TITLE "Dimitri ( Le Clown) "
PERFORMER "Pierre Favre"
INDEX 01 00:00:00
TRACK 02 AUDIO
TITLE "Katybaby"
PERFORMER "Pierre Favre"
INDEX 00 10:07:28
FILE "02 - Katybaby.wav" WAVE
INDEX 01 00:00:00
TRACK 03 AUDIO
TITLE "Kyoto"
PERFORMER "Pierre Favre"
INDEX 00 04:14:21
FILE "03 - Kyoto.wav" WAVE
INDEX 01 00:00:00
TRACK 04 AUDIO
TITLE "Roro"
PERFORMER "Pierre Favre"
INDEX 00 04:37:34
FILE "04 - Roro.wav" WAVE
INDEX 01 00:00:00
TRACK 05 AUDIO
TITLE "Gerunonious"
PERFORMER "Pierre Favre"
INDEX 00 04:18:72
FILE "05 - Gerunonious.wav" WAVE
INDEX 01 00:00:00
TRACK 06 AUDIO
TITLE "YesYes"
PERFORMER "Pierre Favre"
INDEX 00 05:50:64
FILE "06 - YesYes.wav" WAVE
INDEX 01 00:00:00
TRACK 07 AUDIO
TITLE "Abanaba"
PERFORMER "Pierre Favre"
INDEX 00 03:51:02
FILE "07 - Abanaba.wav" WAVE
INDEX 01 00:00:00
TRACK 08 AUDIO
TITLE "Odetooldie"
PERFORMER "Pierre Favre"
INDEX 00 02:46:58
FILE "08 - Odetooldie.wav" WAVE
INDEX 01 00:00:00
TRACK 09 AUDIO
TITLE "Rira Bien Qui Rira Le Dernier"
PERFORMER "Pierre Favre"
INDEX 00 03:23:44
FILE "09 - Rira Bien Qui Rira Le Dernier.wav" WAVE
INDEX 01 00:00:00
 
CD3
REM GENRE "Percussion Music"
REM DATE 2012
REM DISCID 3E089005
REM COMMENT "ExactAudioCopy v1.0b3"
PERFORMER "Pierre Favre"
TITLE "Drums and Dreams CD3"
FILE "01 - Song For A Princess.wav" WAVE
TRACK 01 AUDIO
TITLE "Song For A Princess"
PERFORMER "Pierre Favre"
INDEX 01 00:00:00
TRACK 02 AUDIO
TITLE "Pierre Des Neiges"
PERFORMER "Pierre Favre"
INDEX 00 10:05:24
FILE "02 - Pierre Des Neiges.wav" WAVE
INDEX 01 00:00:00
TRACK 03 AUDIO
TITLE "Talking Birds"
PERFORMER "Pierre Favre"
INDEX 00 06:03:34
FILE "03 - Talking Birds.wav" WAVE
INDEX 01 00:00:00
TRACK 04 AUDIO
TITLE "Mountain Wind "
PERFORMER "Pierre Favre"
INDEX 00 03:15:14
FILE "04 - Mountain Wind.wav" WAVE
INDEX 01 00:00:00
TRACK 05 AUDIO
TITLE "Alexis Cadillac"
PERFORMER "Pierre Favre"
INDEX 00 12:20:56
FILE "05 - Alexis Cadillac.wav" WAVE
INDEX 01 00:00:00
 
Лог проверки качества
d:\>d:\aucdtect -d/-m0 d:\zzz\*.wav
auCDtect: CD records authenticity detector, version 0.8.2
Copyright (c) 2004 Oleg Berngardt. All rights reserved.
Copyright (c) 2004 Alexander Djourik. All rights reserved.
------------------------------------------------------------
Processing file: [01. Dance Number One.wav]
------------------------------------------------------------
This track looks like CDDA with probability 100%
------------------------------------------------------------
Processing file: [01. Dimitri ( Le Clown) .wav]
------------------------------------------------------------
This track looks like CDDA with probability 100%
------------------------------------------------------------
Processing file: [01. Song For A Princess.wav]
------------------------------------------------------------
This track looks like CDDA with probability 100%
------------------------------------------------------------
Processing file: [02. Drum Conversation.wav]
------------------------------------------------------------
This track looks like CDDA with probability 100%
------------------------------------------------------------
Processing file: [02. Katybaby.wav]
------------------------------------------------------------
This track looks like CDDA with probability 100%
------------------------------------------------------------
Processing file: [02. Pierre Des Neiges.wav]
------------------------------------------------------------
This track looks like CDDA with probability 100%
------------------------------------------------------------
Processing file: [03. Kyoto.wav]
------------------------------------------------------------
This track looks like CDDA with probability 100%
------------------------------------------------------------
Processing file: [03. Still Waiting.wav]
------------------------------------------------------------
This track looks like CDDA with probability 100%
------------------------------------------------------------
Processing file: [03. Talking Birds.wav]
------------------------------------------------------------
This track looks like CDDA with probability 100%
------------------------------------------------------------
Processing file: [04. Mountain Wind .wav]
------------------------------------------------------------
This track looks like CDDA with probability 100%
------------------------------------------------------------
Processing file: [04. Roro.wav]
------------------------------------------------------------
This track looks like CDDA with probability 100%
------------------------------------------------------------
Processing file: [04. Swiss Sunday.wav]
------------------------------------------------------------
This track looks like CDDA with probability 100%
------------------------------------------------------------
Processing file: [05. Alexis Cadillac.wav]
------------------------------------------------------------
This track looks like CDDA with probability 100%
------------------------------------------------------------
Processing file: [05. Gerunonious.wav]
------------------------------------------------------------
This track looks like CDDA with probability 100%
------------------------------------------------------------
Processing file: [05. Nameless.wav]
------------------------------------------------------------
This track looks like CDDA with probability 100%
------------------------------------------------------------
Processing file: [06. Patience.wav]
------------------------------------------------------------
This track looks like CDDA with probability 100%
------------------------------------------------------------
Processing file: [06. YesYes.wav]
------------------------------------------------------------
This track looks like CDDA with probability 100%
------------------------------------------------------------
Processing file: [07. Abanaba.wav]
------------------------------------------------------------
This track looks like CDDA with probability 100%
------------------------------------------------------------
Processing file: [07. Rainbow.wav]
------------------------------------------------------------
This track looks like CDDA with probability 100%
------------------------------------------------------------
Processing file: [08. Odetooldie.wav]
------------------------------------------------------------
This track looks like CDDA with probability 100%
------------------------------------------------------------
Processing file: [08. Where Is It.wav]
------------------------------------------------------------
This track looks like CDDA with probability 100%
------------------------------------------------------------
Processing file: [09. Madame Boss.wav]
------------------------------------------------------------
This track looks like CDDA with probability 100%
------------------------------------------------------------
Processing file: [09. Rira Bien Qui Rira Le Dernier.wav]
------------------------------------------------------------
This track looks like CDDA with probability 99%
------------------------------------------------------------
Processing file: [10. Dear Anne.wav]
------------------------------------------------------------
This track looks like CDDA with probability 100%
------------------------------------------------------------
Processing file: [11. Petite Fille.wav]
------------------------------------------------------------
This track looks like CDDA with probability 100%
------------------------------------------------------------
Processing file: [12. Obstructing Doors Causes Delay and Could Be Dangerous.wav]
------------------------------------------------------------
This track looks like CDDA with probability 100%
------------------------------------------------------------
Processing file: [13. The Blue Picture.wav]
------------------------------------------------------------
This track looks like CDDA with probability 100%
------------------------------------------------------------
Processing file: [14. What...No Smile Today .wav]
------------------------------------------------------------
This track looks like CDDA with probability 100%
------------------------------------------------------------
Final Conclusion:
------------------------------------------------------------
These tracks looks like CDDA with probability 100%
Доп. информация:
 
Album Info & WonderingSound.com Review
All compositions by Pierre Favre
CD1
Recorded at Cine-Ton, Munchen, May 20, 1970 / Recording engineer: Herbert Prasch / Produced by Pierre Favre / Original art work: Anne Favre / First release on Calig-Verlag, Munchen, 1970. CAL 30606.
CD2
Recorded at Europasonor (Charcot), Paris, March 10, 1972 / Recording engineer: Daniel Naudin / Produced by Pierre Favre & Gerard Terrones / Original art work: Anne Favre / First release on Futura Records, Paris / Pierre Favre plays Paiste cymbals and gongs and Ludwig drums / 2.7. was recorded during the same session in Paris, March 10, 1972, but was not on the original LP.
CD3
Recorded at Kleintheater Lucerne, Switzerland on December 11, 1978 / Recording engineer: Pit Gutmann / Original art work: Egon Meichtry, Alex Sadkowsky / First release on Gemini Records, Zurich / Pierre Favre plays Paiste cymbals and gongs and Ludwig drums
Remastered for Intakt Records at Studio Klangdach by Willy Strehler, January 2012
Re-released, published & copyright by Intakt Records, Patrik Landolt, 2012
Liner notes: Bert Noglik / Translation: Steph Morris
Cover art and graphic design: Jonas Schoder
Photos digifile: Michel van Grondel
Pierre Favre’s massive, definitive statement on drumming, Drums and Dreams, is a lot to absorb: An album consisting of 28 tracks of solo percussion doesn’t just demand a lot of the performer; the listener has got to be down for it, too. Luckily Favre, a drummer of both technique and imagination, has thought deeply about what to present. If the result is exhausting, it is exhausting in a Joycean Ulysses kind of way.
A massive, definitive statement on drumming
It’s possible to see Favre as a slightly more uni-metric, more measured version of Milford Graves: someone who is more concerned with creating a drum environment than in maintaining band time. And, in keeping with the “dream” theme of the album, the drums come at you from unusual places: They rush from the back of the speakers to the fore, they emerge off in the distance, they’re right in your ear. Although these are clearly drum-centric pieces, what matters most here is composition and form. Favre’s architectural sense is formidable. The pieces have clear, defined narratives, no matter how abstruse (and some of the pieces are, in fact, very difficult). The long “Dimitri (Le Clown)” ranks among the most fully developed drum solos ever recorded.
Favre is so loose-limbed in his execution that it takes a while to realize that he is repeating incredibly intricate phrases with impeccable precision. At one point, he starts a bell-and-drum motif that combines stick and brush work, and the brushes themselves produces a circular buzzing noise; the effect is so staggeringly complex (and beautiful) that it strains believability. “Where Is It?” could have come from a more virtuosic Sunny Murray. “Swiss Sunday” is more about silence and space than about sound, drawing the listener into concentrically fading cymbal and gong touches. Power and subtlety are given equal consideration in “The Blue Picture.”
But, in the end, it makes less sense to point to individual tracks on Drums and Dreams than it does to steer you to the album in its encyclopedic entirety. I’ve never heard anything remotely like it before, and doubt that there’s anything else in the “jazz” discography of drumming that approaches it in its ambitiousness. Anyone willing to set aside a couple of hours of uninterrupted listening time to absorb it whole will be richly rewarded.
 
Состав
Pierre Favre: drums, percussion
02:02
459
Нет комментариев. Ваш будет первым!